Я все ще бачу тебе / I Still See You (2018) 1080p Ukr/Eng

Нові коментарі

Нова тема   Відповісти
Автор Повідомлення
DniproFilm 
VIP


З нами з: 10.10.18
Востаннє: 25.09.20
Повідомлень: 432

2018-12-25 03:28  
Я все ще бачу тебе / I Still See You (2018) 1080p Ukr/Eng

Я все ще бачу тебе / I Still See You (2018) 1080p Ukr/Eng


Жанр: трилер, детектив, фентезі
Країна: США



Кінокомпанія: Gold Circle Films
Режисер: Скотт Спір
Актори: Белла Торн, Дермот Малруні, Річард Хермон, Луіс Хертем, Г'ю Діллон, Емі Прайс-Френсіс, Сара Томпсон, Шон Бенсон та інші

Сюжет:
Протягом багатьох століть існувала тонка межа між світами. Нічого не віщувало біди, але одного разу сталося дещо, що відкрило портал в царство мертвих. Тепер душі могли повертатися в світ живих людей. Деякі могли бачити цих непроханих гостей. Серед них була Вероніка. Дівчина не припускала, що відтепер її життя буде постійно наражатися на небезпеку, адже за бідолахою полює підступний привид...


Тривалість: 01:38:39

Якість: 1080p
Відео:
кодек:
розмір кадру: 1920x800
бітрейт: 6963 кб/с

Аудіо # 1:
мова: українська
переклад: багатоголосий закадровий
кодек: 5.1
бітрейт: 384 кб/с

Аудіо # 2:
мова: англійська
переклад: оригінал
кодек: 5.1
бітрейт: 640 кб/с

Джерело озвучення:
DniproFilm
Info

Video
ID : 1
Format : AVC
Format/Info : Advanced Video Codec
Format profile : [email protected]
Format settings : CABAC / 4 Ref Frames
Format settings, CABAC : Yes
Format settings, ReFrames : 4 frames
Codec ID : V_MPEG4/ISO/AVC
Duration : 1 h 38 min
Bit rate : 6 963 kb/s
Width : 1 920 pixels
Height : 800 pixels
Display aspect ratio : 2.40:1
Frame rate mode : Constant
Frame rate : 23.976 (24000/1001) FPS
Standard : NTSC
Color space : YUV
Chroma subsampling : 4:2:0
Bit depth : 8 bits
Scan type : Progressive
Bits/(Pixel*Frame) : 0.189
Stream size : 4.80 GiB (87%)
Language : English
Default : Yes
Forced : No
Color range : Limited
Color primaries : BT.709
Transfer characteristics : BT.709
Matrix coefficients : BT.709

Audio #1
ID : 2
Format : AC-3
Format/Info : Audio Coding 3
Commercial name : Dolby Digital
Codec ID : A_AC3
Duration : 1 h 38 min
Bit rate mode : Constant
Bit rate : 384 kb/s
Channel(s) : 6 channels
Channel positions : Front: L C R, Side: L R, LFE
Sampling rate : 48.0 kHz
Frame rate : 31.250 FPS (1536 SPF)
Bit depth : 16 bits
Compression mode : Lossy
Stream size : 271 MiB (5%)
Title : DniproFilm
Language : Ukrainian
Service kind : Complete Main
Default : Yes
Forced : No

Audio #2
ID : 3
Format : AC-3
Format/Info : Audio Coding 3
Codec ID : A_AC3
Duration : 1 h 38 min
Bit rate : 640 kb/s
Channel(s) : 6 channels
Sampling rate : 48.0 kHz
Frame rate : 31.250 FPS (1536 SPF)
Compression mode : Lossy
Stream size : 449 MiB (8%)
Language : English
Default : No
Forced : No
Скріншоти


Увага, присутня відео та аудіореклама.


Джерело: DniproFilm


Авторський реліз (завантажувати можна без реєстрації)
 Трекер:    Зареєстрований   

Завантажити / скачати фільм українською



відео для новачків



 Зареєстрований:   2018-12-25 03:28
 Розмір:   5.5 GB 
 Оцінка фільму:   9/10 (Голосів: 2)
   
Інші релізи
Ваш часовий пояс: GMT + 2 Години

Нова тема   Відповісти