Ґальвестон / Galveston (2018)

Нові коментарі

Нова тема   Відповісти
Автор Повідомлення
DniproFilm 
VIP


З нами з: 10.10.18
Востаннє: 08.08.20
Повідомлень: 426

2018-12-25 03:28  
Ґальвестон / Galveston (2018)

Ґальвестон / Galveston (2018)


Жанр: бойовик, драма, кримінальний, трилер
Країна: США



Кінокомпанія: Jean Doumanian Productions, Low Spark Films
Режисер: Мелані Лоран
Актори: Лілі Рейнхарт, Ель Феннінг, Бен Фостер, Марія Вальверде, Бо Бріджес, Роберт Арамайо, Едеперо Одуйє, Тінслі Прайс, Еністон Прайс, Хайді Левандовскі та інші

Сюжет:
Ґальвестон - це захоплююча американська кінострічка в жанрі кримінального бойовика, в основі якої лежить роман Ніка Піццолатто. У центрі сюжетної лінії Рой Кеді, сорокарічний кілер з Нового Орлеана. Одного разу головний герой дізнається, що смертельно хворий. У нього рак легенів. Ось тільки більше чоловіка хвилює той факт, що від нього задумав позбутися начальник. Тепер Рой змушений тікати з молодою дівчиною легкої поведінки Ракель, сподіваючись, що уникне неприємної долі. Але до чого призведе подібна витівка Роя Кеді? Чи вплине загальний стан здоров'я на виконання задуманого? Чи знайде бос Роя? Та й навіщо йому така супутниця?


Тривалість: 01:34:24

Якість:
Відео:
кодек:
розмір кадру: 720x300
бітрейт: 1388 кб/с

Аудіо # 1:
мова: українська
переклад: багатоголосий закадровий
кодек: 5.1
бітрейт: 384 кб/с

Джерело озвучення:
DniproFilm
Info

Video
ID : 0
Format : MPEG-4 Visual
Format profile : Advanced [email protected]
Format settings : BVOP2
Format settings, BVOP : 2
Format settings, QPel : No
Format settings, GMC : No warppoints
Format settings, Matrix : Default (H.263)
Muxing mode : Packed bitstream
Codec ID :
Codec ID/Hint :
Duration : 1 h 34 min
Bit rate : 1 388 kb/s
Width : 720 pixels
Height : 300 pixels
Display aspect ratio : 2.40:1
Frame rate : 24.000 FPS
Color space : YUV
Chroma subsampling : 4:2:0
Bit depth : 8 bits
Scan type : Progressive
Compression mode : Lossy
Bits/(Pixel*Frame) : 0.268
Stream size : 934 MiB (78%)
Writing library : 67

Audio
ID : 1
Format : AC-3
Format/Info : Audio Coding 3
Commercial name : Dolby Digital
Codec ID : 2000
Duration : 1 h 34 min
Bit rate mode : Constant
Bit rate : 384 kb/s
Channel(s) : 6 channels
Channel positions : Front: L C R, Side: L R, LFE
Sampling rate : 48.0 kHz
Frame rate : 31.250 FPS (1536 SPF)
Bit depth : 16 bits
Compression mode : Lossy
Stream size : 258 MiB (22%)
Alignment : Aligned on interleaves
Interleave, duration : 42 ms (1.00 video frame)
Interleave, preload duratio : 512 ms
Service kind : Complete Main
Скріншоти


Увага, присутня відео та аудіореклама.


Джерело: DniproFilm


Авторський реліз (завантажувати можна без реєстрації)
 Трекер:    Зареєстрований   

Завантажити / скачати фільм українською



відео для новачків



 Зареєстрований:   2018-12-25 03:28
 Розмір:   1.17 GB 
 Оцінка фільму:   8.1/10 (Голосів: 42)
   
Інші релізи
   Ґалвестон / Galveston (2018) AVC 2xUkr/Eng | Sub Eng Arsenfpu  10 / 0   1.71 GB   2020-05-17 15:17 
   Гальвестон (Ґальвестон) / Galveston (2018) 1080p Ukr/Eng | Sub Eng drop_plz  2 / 0   6.82 GB   2020-05-17 12:51 
   Ґальвестон / Galveston (2018) 1080p H.265 Ukr/Eng | Sub Eng -Star-Lord-  4 / 0   3.45 GB   2019-01-18 18:00 
   Ґальвестон / Galveston (2018) 720p Ukr/Eng DniproFilm  2 / 0   3.21 GB   2018-12-25 03:28 
   Ґальвестон / Galveston (2018) 1080p Ukr/Eng DniproFilm  3 / 0   5.13 GB   2018-12-25 03:28 
Ванько 
VIP


З нами з: 27.08.09
Востаннє: 10.08.20
Повідомлень: 415

2018-12-25 21:42  
Хороший фільм, Фостер молодець на пару з Ель.
taramon 
Частий відвідувач


З нами з: 28.09.09
Востаннє: 02.08.20
Повідомлень: 44

2018-12-26 10:51  
6/10
SUBURBAN 
Новенький


З нами з: 25.04.10
Востаннє: 04.01.19
Повідомлень: 8

2018-12-26 21:20  
Ракель!!!! ахахахахахахахахаххх)))))))
MutuLI 
Відео Гуртом - фільмокрай
Відео Гуртом - фільмокрай


З нами з: 08.03.09
Востаннє: 10.08.20
Повідомлень: 1914

2018-12-27 11:27  
Фільм ніпрощо. Єдине що сподобалося це головна героїня, сам фільм реально ніякий. 5 з10
Trjam! 
Частий відвідувач


З нами з: 18.11.16
Востаннє: 09.08.20
Повідомлень: 49

2018-12-28 20:18  
Треба писати не "присутня реклама".
А "вам впарять рекламу [лайку та спам видалено]" Cry (2) Cry (1) Confused

пан Струмок 
VIP


З нами з: 19.02.13
Востаннє: 03.08.20
Повідомлень: 269

2018-12-28 21:59  
"Тепер Рой змушений тікати з Ракель, дівчиною легких звичаїв...
Ua.bos_01 
VIP


З нами з: 22.06.15
Востаннє: 09.08.20
Повідомлень: 1624

2019-01-05 20:45  
Справді... Фільм ні про що! Не витрачайте свого часу.
Ваш часовий пояс: GMT + 2 Години

Нова тема   Відповісти