Ґальвестон / Galveston (2018) 1080p Ukr/Eng

Нові коментарі

Нова тема   Відповісти
Автор Повідомлення
DniproFilm 
VIP


З нами з: 10.10.18
Востаннє: 08.08.20
Повідомлень: 426

2018-12-25 03:28  
Ґальвестон / Galveston (2018) 1080p Ukr/Eng

Ґальвестон / Galveston (2018) 1080p Ukr/Eng


Жанр: бойовик, драма, кримінальний, трилер
Країна: США



Кінокомпанія: Jean Doumanian Productions, Low Spark Films
Режисер: Мелані Лоран
Актори: Лілі Рейнхарт, Ель Феннінг, Бен Фостер, Марія Вальверде, Бо Бріджес, Роберт Арамайо, Едеперо Одуйє, Тінслі Прайс, Еністон Прайс, Хайді Левандовскі та інші

Сюжет:
Ґальвестон - це захоплююча американська кінострічка в жанрі кримінального бойовика, в основі якої лежить роман Ніка Піццолатто. У центрі сюжетної лінії Рой Кеді, сорокарічний кілер з Нового Орлеана. Одного разу головний герой дізнається, що смертельно хворий. У нього рак легенів. Ось тільки більше чоловіка хвилює той факт, що від нього задумав позбутися начальник. Тепер Рой змушений тікати з молодою дівчиною легкої поведінки Ракель, сподіваючись, що уникне неприємної долі. Але до чого призведе подібна витівка Роя Кеді? Чи вплине загальний стан здоров'я на виконання задуманого? Чи знайде бос Роя? Та й навіщо йому така супутниця?


Тривалість: 01:34:24

Якість: 1080p
Відео:
кодек:
розмір кадру: 1920x800
бітрейт: 6777 кб/с

Аудіо # 1:
мова: українська
переклад: багатоголосий закадровий
кодек: 5.1
бітрейт: 384 кб/с

Аудіо # 2:
мова: англійська
переклад: оригінал
кодек: 5.1
бітрейт: 640 кб/с

Джерело озвучення:
DniproFilm
Info

Video
ID : 1
Format : AVC
Format/Info : Advanced Video Codec
Format profile : [email protected]
Format settings : CABAC / 4 Ref Frames
Format settings, CABAC : Yes
Format settings, ReFrames : 4 frames
Codec ID : V_MPEG4/ISO/AVC
Duration : 1 h 34 min
Bit rate : 6 777 kb/s
Width : 1 920 pixels
Height : 800 pixels
Display aspect ratio : 2.40:1
Frame rate mode : Constant
Frame rate : 24.000 FPS
Color space : YUV
Chroma subsampling : 4:2:0
Bit depth : 8 bits
Scan type : Progressive
Bits/(Pixel*Frame) : 0.184
Stream size : 4.45 GiB (87%)
Language : English
Default : Yes
Forced : No
Color range : Limited
Color primaries : BT.709
Transfer characteristics : BT.709
Matrix coefficients : BT.709

Audio #1
ID : 2
Format : AC-3
Format/Info : Audio Coding 3
Commercial name : Dolby Digital
Codec ID : A_AC3
Duration : 1 h 34 min
Bit rate mode : Constant
Bit rate : 384 kb/s
Channel(s) : 6 channels
Channel positions : Front: L C R, Side: L R, LFE
Sampling rate : 48.0 kHz
Frame rate : 31.250 FPS (1536 SPF)
Bit depth : 16 bits
Compression mode : Lossy
Stream size : 258 MiB (5%)
Title : DniproFilm
Language : Ukrainian
Service kind : Complete Main
Default : Yes
Forced : No

Audio #2
ID : 3
Format : AC-3
Format/Info : Audio Coding 3
Codec ID : A_AC3
Duration : 1 h 33 min
Bit rate : 640 kb/s
Channel(s) : 6 channels
Sampling rate : 48.0 kHz
Frame rate : 31.250 FPS (1536 SPF)
Compression mode : Lossy
Stream size : 428 MiB (8%)
Language : English
Default : No
Forced : No
Скріншоти


Увага, присутня відео та аудіореклама.


Джерело: DniproFilm


Авторський реліз (завантажувати можна без реєстрації)
 Трекер:    Зареєстрований   

Завантажити / скачати фільм українською



відео для новачків



 Зареєстрований:   2018-12-25 03:28
 Розмір:   5.13 GB 
 Оцінка фільму:   7.4/10 (Голосів: 12)
   
Інші релізи
   Ґалвестон / Galveston (2018) AVC 2xUkr/Eng | Sub Eng Arsenfpu  10 / 0   1.71 GB   2020-05-17 15:17 
   Гальвестон (Ґальвестон) / Galveston (2018) 1080p Ukr/Eng | Sub Eng drop_plz  2 / 0   6.82 GB   2020-05-17 12:51 
   Ґальвестон / Galveston (2018) 1080p H.265 Ukr/Eng | Sub Eng -Star-Lord-  4 / 0   3.45 GB   2019-01-18 18:00 
   Ґальвестон / Galveston (2018) DniproFilm  4 / 0   1.17 GB   2018-12-25 03:28 
   Ґальвестон / Galveston (2018) 720p Ukr/Eng DniproFilm  2 / 0   3.21 GB   2018-12-25 03:28 
Ваш часовий пояс: GMT + 2 Години

Нова тема   Відповісти