Перелом / Fractured (2018)

Нові коментарі

Нова тема   Відповісти
Автор Повідомлення
DniproFilm 
VIP


З нами з: 10.10.18
Востаннє: 28.02.21
Повідомлень: 459

2018-12-25 02:28  
Перелом / Fractured (2018)

Перелом / Fractured (2018)


Жанр: трилер
Країна: Велика Британія



Кінокомпанія: Jump Start Productions
Режисер: Джемі Паттерсон
Актори: Луїза Літтон, Ейпріл Пірсон, Карл Дейвіс, Джордан Меткалф, Келвін Дін та інші

Сюжет:
Молода пара, Ребекка та Майкл, вирішують провести вікенд подалі від великого міста та скупчення людей. Діставшись до будинку глибоко в англійській глушині, вони починають підозрювати, що за ними хтось пильно спостерігає...


Тривалість: 01:18:41

Якість:
Відео:
кодек:
розмір кадру: 720x300
бітрейт: 1035 кб/с

Аудіо # 1:
мова: українська
переклад: багатоголосий закадровий
кодек: 2.0
бітрейт: 192 кб/с

Джерело озвучення:
DniproFilm
Info

Video
ID : 0
Format : MPEG-4 Visual
Format profile : Advanced [email protected]
Format settings : BVOP2
Format settings, BVOP : 2
Format settings, QPel : No
Format settings, GMC : No warppoints
Format settings, Matrix : Default (H.263)
Muxing mode : Packed bitstream
Codec ID :
Codec ID/Hint :
Duration : 1 h 18 min
Bit rate : 1 035 kb/s
Width : 720 pixels
Height : 300 pixels
Display aspect ratio : 2.40:1
Frame rate : 25.000 FPS
Color space : YUV
Chroma subsampling : 4:2:0
Bit depth : 8 bits
Scan type : Progressive
Compression mode : Lossy
Bits/(Pixel*Frame) : 0.192
Stream size : 583 MiB (84%)
Writing library : 67

Audio
ID : 1
Format : AC-3
Format/Info : Audio Coding 3
Commercial name : Dolby Digital
Codec ID : 2000
Duration : 1 h 18 min
Bit rate mode : Constant
Bit rate : 192 kb/s
Channel(s) : 2 channels
Channel positions : Front: L R
Sampling rate : 48.0 kHz
Frame rate : 31.250 FPS (1536 SPF)
Bit depth : 16 bits
Compression mode : Lossy
Stream size : 108 MiB (16%)
Alignment : Aligned on interleaves
Interleave, duration : 40 ms (1.00 video frame)
Interleave, preload duratio : 512 ms
Service kind : Complete Main
Скріншоти


Увага, присутня відео та аудіореклама.


Джерело: DniproFilm


Авторський реліз (завантажувати можна без реєстрації)
 Трекер:    Зареєстрований   

Завантажити / скачати фільм українською



відео для новачків



 Зареєстрований:   2018-12-25 02:28
 Розмір:   696 MB 
 Оцінка фільму:   8.6/10 (Голосів: 16)
   
Інші релізи
   Перелом / Fractured (2018) 720р Ukr/Eng DniproFilm  4 / 0   2.37 GB   2018-12-25 02:28 
   Перелом / Fractured (2018) 1080p Ukr/Eng DniproFilm  0 / 0   3.77 GB   2018-12-25 02:27 
Ua.bos_01 
VIP


З нами з: 22.06.15
Востаннє: 13.02.21
Повідомлень: 1630

2019-01-05 20:26  
Посередній фільм на давно всім відому тематику. Нічого нового чи цікавого я тут не побачив.
Ваш часовий пояс: GMT + 2 Години

Нова тема   Відповісти