Перелом / Fractured (2018) 720р Ukr/Eng

Нові коментарі

Нова тема   Відповісти
Автор Повідомлення
DniproFilm 
VIP


З нами з: 10.10.18
Востаннє: 19.02.20
Повідомлень: 355

2018-12-25 02:28  
Перелом / Fractured (2018) 720p Ukr/Eng

Перелом / Fractured (2018) 720р Ukr/Eng


Жанр: трилер
Країна: Велика Британія



Кінокомпанія: Jump Start Productions
Режисер: Джемі Паттерсон
Актори: Луїза Літтон, Ейпріл Пірсон, Карл Дейвіс, Джордан Меткалф, Келвін Дін та інші

Сюжет:
Молода пара, Ребекка та Майкл, вирішують провести вікенд подалі від великого міста та скупчення людей. Діставшись до будинку глибоко в англійській глушині, вони починають підозрювати, що за ними хтось пильно спостерігає...


Тривалість: 01:18:41

Якість: 720p
Відео:
кодек:
розмір кадру: 1280x532
бітрейт: 3732 кб/с

Аудіо # 1:
мова: українська
переклад: багатоголосий закадровий
кодек: 2.0
бітрейт: 192 кб/с

Аудіо # 2:
мова: англійська
переклад: оригінал
кодек: 2.0
бітрейт: 384 кб/с

Джерело озвучення:
DniproFilm
Info

Video
ID : 1
Format : AVC
Format/Info : Advanced Video Codec
Format profile : [email protected]
Format settings : CABAC / 4 Ref Frames
Format settings, CABAC : Yes
Format settings, ReFrames : 4 frames
Codec ID : V_MPEG4/ISO/AVC
Duration : 1 h 18 min
Bit rate : 3 732 kb/s
Width : 1 280 pixels
Height : 532 pixels
Display aspect ratio : 2.40:1
Frame rate mode : Constant
Frame rate : 25.000 FPS
Standard : PAL
Color space : YUV
Chroma subsampling : 4:2:0
Bit depth : 8 bits
Scan type : Progressive
Bits/(Pixel*Frame) : 0.219
Stream size : 2.05 GiB (87%)
Language : English
Default : Yes
Forced : No
Color range : Limited
Color primaries : BT.601 NTSC
Transfer characteristics : BT.601
Matrix coefficients : BT.601

Audio #1
ID : 2
Format : AC-3
Format/Info : Audio Coding 3
Commercial name : Dolby Digital
Codec ID : A_AC3
Duration : 1 h 18 min
Bit rate mode : Constant
Bit rate : 192 kb/s
Channel(s) : 2 channels
Channel positions : Front: L R
Sampling rate : 48.0 kHz
Frame rate : 31.250 FPS (1536 SPF)
Bit depth : 16 bits
Compression mode : Lossy
Stream size : 108 MiB (4%)
Title : DniproFilm
Language : Ukrainian
Service kind : Complete Main
Default : Yes
Forced : No

Audio #2
ID : 3
Format : AC-3
Format/Info : Audio Coding 3
Codec ID : A_AC3
Duration : 1 h 18 min
Bit rate : 384 kb/s
Channel(s) : 2 channels
Sampling rate : 48.0 kHz
Frame rate : 31.250 FPS (1536 SPF)
Compression mode : Lossy
Stream size : 215 MiB (9%)
Language : English
Default : No
Forced : No
Скріншоти


Увага, присутня відео та аудіореклама.


Джерело: DniproFilm


Авторський реліз (завантажувати можна без реєстрації)
 Трекер:    Зареєстрований   

Завантажити / скачати фільм українською



відео для новачків



 Зареєстрований:   2018-12-25 02:28
 Розмір:   2.37 GB 
 Оцінка фільму:   8.7/10 (Голосів: 6)
   
Інші релізи
   Перелом / Fractured (2018) DniproFilm  5 / 0   696 MB   2018-12-25 02:28 
   Перелом / Fractured (2018) 1080p Ukr/Eng DniproFilm  1 / 0   3.77 GB   2018-12-25 02:27 
casper101 
VIP


З нами з: 03.12.09
Востаннє: 19.02.20
Повідомлень: 439

2019-04-24 22:10  
я не розумію не було що озвучувати, яка причина озвучки цього фільму?
pravdorub 
Свій


З нами з: 24.12.17
Востаннє: 13.02.20
Повідомлень: 99

2019-04-24 22:22  
casper101 написано:
я не розумію не було що озвучувати, яка причина озвучки цього фільму?

бабло рекламодавці дають лише на свіжак, байдуже, що це треш.

Ваш часовий пояс: GMT + 2 Години

Нова тема   Відповісти