Парфум (Сезон 1) / Parfum (Season 1) (2018)

Нові коментарі

Нова тема   Відповісти
Останній раз роздавалося trasylo (2019-07-07)
Автор Повідомлення
DniproFilm 
VIP


З нами з: 10.10.18
Востаннє: 22.08.19
Повідомлень: 258

2018-12-25 03:27  
Парфум (Сезон 1) / Parfum (Season 1) (2018)

Парфум (Сезон 1) / Parfum (Season 1) (2018)


Жанр: драма, трилер
Країна: Німеччина



Кінокомпанія / телеканал: Constantin Film
Режисер: Філіпп Кадельбах
Актори/ролі озвучують: Фредеріке Бехт, Наталя Белітскі, Аугуст Діль, Кен Дукен, Крістіан Фрідель, Марк Хоземанн, Юрген Маурер, Трістан П'юттер, Карлотта фон Фалькенхайн та інші

Сюжет:
Історія сироти Жана-Батиста Гренуя, що мав неймовірний дар розрізняти найвишуканіші та найнепомітніші аромати підкорила мільйони сердець по всьому світі. Нова екранізація переносить події середини XVIII століття у наші часи, а головними героями стають кілька друзів по школі-інтернату, яких об'єднує унікальна здатність дуже тонко відчувати запахи.

Друзі пристрасно досліджують вплив запахів на поведінку людини і вчаться синтезувати запахи окремих людей. Захопившись своєю роботою, вони не помічають, як переходять межу дозволеного…


Тривалість: 1 серія: ~ 60 хв. (цілком серій: 6)
Перелік серій

1. Ambra
2. Skatol
3. Synthese
4. Die dritte Substanz
5. Herzakkord
6. Fesselung
Якість:
Відео:
кодек:
розмір кадру: 720x360
бітрейт: ~1800 кб/с

Аудіо # 1:
мова: українська
переклад: багатоголосий закадровий
кодек: 5.1
бітрейт: 384 кб/с

Джерело озвучення:
DniproFilm
Info

Video
ID : 0
Format : MPEG-4 Visual
Format profile : Advanced [email protected]
Format settings : BVOP2
Format settings, BVOP : 2
Format settings, QPel : No
Format settings, GMC : No warppoints
Format settings, Matrix : Default (H.263)
Muxing mode : Packed bitstream
Codec ID :
Codec ID/Hint :
Duration : 53 min 22 s
Bit rate : 1 730 kb/s
Width : 720 pixels
Height : 360 pixels
Display aspect ratio : 2.000
Frame rate : 25.000 FPS
Color space : YUV
Chroma subsampling : 4:2:0
Bit depth : 8 bits
Scan type : Progressive
Compression mode : Lossy
Bits/(Pixel*Frame) : 0.267
Stream size : 660 MiB (81%)
Writing library : 67

Audio
ID : 1
Format : AC-3
Format/Info : Audio Coding 3
Commercial name : Dolby Digital
Codec ID : 2000
Duration : 53 min 22 s
Bit rate mode : Constant
Bit rate : 384 kb/s
Channel(s) : 6 channels
Channel positions : Front: L C R, Side: L R, LFE
Sampling rate : 48.0 kHz
Frame rate : 31.250 FPS (1536 SPF)
Bit depth : 16 bits
Compression mode : Lossy
Stream size : 147 MiB (18%)
Alignment : Aligned on interleaves
Interleave, duration : 40 ms (1.00 video frame)
Interleave, preload duratio : 512 ms
Service kind : Complete Main
Скріншоти


Увага, присутня відео та аудіореклама.


Джерело: DniproFilm



Авторський реліз (завантажувати можна без реєстрації)
 Трекер:    Зареєстрований   

Завантажити / скачати серіал українською



відео для новачків



 Зареєстрований:   2018-12-25 03:27
 Розмір:   5.16 GB 
 Оцінка серіалу:   9.4/10 (Голосів: 10)
   
selb 
Відео Гуртом - підтримка та поширення
Відео Гуртом - підтримка та поширення


З нами з: 13.01.16
Востаннє: 22.08.19
Повідомлень: 442

2018-12-31 20:06  
DniproFilm, думаю, варто додати позначку «18+».

Уперше стикнувся з адекватним розміщенням реклами у релізі.

mikle-v 
Частий відвідувач


З нами з: 06.12.12
Востаннє: 17.08.19
Повідомлень: 30

2019-01-02 19:36  
Серіал вартий уваги! Правда, я б не назвав це екранізацією історії Жана-Батиста Гренуя. До роману Зюскінда це має віддалене відношення. Хіба що герої серіалу час від часу згадують про оригінальний твір і його перипетії.
Озвучено досить якісно. Але (мені особисто) заважає величеньке "лого перекладачів" у лівому нижньому кутку екрана. Це якось дуже по піратськи.)) Панове, Ви не маєте жодного стосунку до картинки! Ваш лише переклад!)

Ваш часовий пояс: GMT + 2 Години

Нова тема   Відповісти