Парфум (Сезон 1) / Parfum (Season 1) (2018) 1080p Ukr/Ger

Нові коментарі

Нова тема   Відповісти
Останній раз роздавалося trarara (2019-11-06)
Автор Повідомлення
DniproFilm 
VIP


З нами з: 10.10.18
Востаннє: 04.12.20
Повідомлень: 446

2018-12-25 02:27  
Парфум (Сезон 1) / Parfum (Season 1) (2018) 1080p Ukr/Ger

Парфум (Сезон 1) / Parfum (Season 1) (2018) 1080p Ukr/Ger


Жанр: драма, трилер
Країна: Німеччина



Кінокомпанія / телеканал: Constantin Film
Режисер: Філіпп Кадельбах
Актори/ролі озвучують: Фредеріке Бехт, Наталя Белітскі, Аугуст Діль, Кен Дукен, Крістіан Фрідель, Марк Хоземанн, Юрген Маурер, Трістан П'юттер, Карлотта фон Фалькенхайн та інші

Сюжет:
Історія сироти Жана-Батиста Гренуя, що мав неймовірний дар розрізняти найвишуканіші та найнепомітніші аромати підкорила мільйони сердець по всьому світі. Нова екранізація переносить події середини XVIII століття у наші часи, а головними героями стають кілька друзів по школі-інтернату, яких об'єднує унікальна здатність дуже тонко відчувати запахи.

Друзі пристрасно досліджують вплив запахів на поведінку людини і вчаться синтезувати запахи окремих людей. Захопившись своєю роботою, вони не помічають, як переходять межу дозволеного…


Тривалість: 1 серія: ~ 60 хв. (цілком серій: 6)
Перелік серій

1. Ambra
2. Skatol
3. Synthese
4. Die dritte Substanz
5. Herzakkord
6. Fesselung
Якість:
Відео:
кодек:
розмір кадру: 1920x960
бітрейт: ~7000 кб/с

Аудіо # 1:
мова: українська
переклад: багатоголосий закадровий
кодек: 5.1
бітрейт: 384 кб/с

Аудіо # 2:
мова: німецька
переклад: оригінал
кодек: 5.1
бітрейт: 640 кб/с

Джерело озвучення:
DniproFilm
Info

Video
ID : 1
Format : AVC
Format/Info : Advanced Video Codec
Format profile : [email protected]
Format settings : CABAC / 4 Ref Frames
Format settings, CABAC : Yes
Format settings, ReFrames : 4 frames
Codec ID : V_MPEG4/ISO/AVC
Duration : 53 min 22 s
Bit rate : 6 686 kb/s
Width : 1 920 pixels
Height : 960 pixels
Display aspect ratio : 2.000
Frame rate mode : Constant
Frame rate : 25.000 FPS
Standard : PAL
Color space : YUV
Chroma subsampling : 4:2:0
Bit depth : 8 bits
Scan type : Progressive
Bits/(Pixel*Frame) : 0.145
Stream size : 2.49 GiB (87%)
Language : English
Default : Yes
Forced : No
Color range : Limited
Color primaries : BT.709
Transfer characteristics : BT.709
Matrix coefficients : BT.709

Audio #1
ID : 2
Format : AC-3
Format/Info : Audio Coding 3
Commercial name : Dolby Digital
Codec ID : A_AC3
Duration : 53 min 22 s
Bit rate mode : Constant
Bit rate : 384 kb/s
Channel(s) : 6 channels
Channel positions : Front: L C R, Side: L R, LFE
Sampling rate : 48.0 kHz
Frame rate : 31.250 FPS (1536 SPF)
Bit depth : 16 bits
Compression mode : Lossy
Stream size : 147 MiB (5%)
Title : DniproFilm
Language : Ukrainian
Service kind : Complete Main
Default : Yes
Forced : No

Audio #2
ID : 3
Format : AC-3
Format/Info : Audio Coding 3
Codec ID : A_AC3
Duration : 52 min 51 s
Bit rate : 640 kb/s
Channel(s) : 6 channels
Sampling rate : 48.0 kHz
Frame rate : 31.250 FPS (1536 SPF)
Compression mode : Lossy
Stream size : 242 MiB (8%)
Language : German
Default : No
Forced : No
Скріншоти


Увага, присутня відео та аудіореклама.


Джерело: DniproFilm



Авторський реліз (завантажувати можна без реєстрації)
 Трекер:    Зареєстрований   

Завантажити / скачати серіал українською



відео для новачків



 Зареєстрований:   2018-12-25 02:31
 Розмір:   18.76 GB 
 Оцінка серіалу:   10/10 (Голосів: 2)
   
Ваш часовий пояс: GMT + 2 Години

Нова тема   Відповісти