Невинний (Сезон 1) / The Innocent Man (Season 1) (2018)

Нові коментарі

Нова тема   Відповісти
Автор Повідомлення
DniproFilm 
VIP


З нами з: 10.10.18
Востаннє: 19.02.19
Повідомлень: 291

2018-12-25 02:27  
Невинний (Сезон 1) / The Innocent Man (Season 1) (2018)

Невинний (Сезон 1) / The Innocent Man (Season 1) (2018)


Жанр: документальний, детектив, кримінальний
Країна: США



Кінокомпанія / телеканал: Netflix Studios
Режисер: Клей Твіл
Актори/ролі озвучують: Мойра Антас, Дж. Дж. Арендс, Сирена Мічеле Бурнс, Кайлеен Тереза Сасей, Сетх Мітчел Соннелл, Гарре Давіс, Олівія де Боутрай, Хезел МакФол та інші

Сюжет:
За основу сюжету використано книгу популярного американського автора Джона Гришима "Невинний: Вбивство та несправедливість у невеличкому містечку".
Ця історія цілком реальна. Рона Вільямсона, свого часу відомого спортсмена, засуджено за вбивство, якого він не скоював. Суд не повірив у його невинність та призначив вирок смертною карою. І все це попри неправдиві свідоцтва та непереконливі докази причетності Рона до скоєння вбивства Дебри Сью Картер, тіло якої було знайдено неподалік будинку Вільямсонів. 11 років він пробув у камері смертників, очікуючи виконання вироку. Але коли криміналісти навчилися проводити тест ДНК, експертиза та інші матеріали справи дозволили повністю виправдати нашого героя.


Тривалість: 1 серія: ~ 50 хв. (цілком серій: 6)
Перелік серій

1. Debbie and Denice
2. In Dreams
3. Rotten to the Core
4. Corpus Delicti
5. Smoking Guns
6. Snow Storm
Якість:
Відео:
кодек:
розмір кадру: 720x300
бітрейт: ~1800 кб/с

Аудіо # 1:
мова: українська
переклад: багатоголосий закадровий
кодек: 5.1
бітрейт: 384 кб/с

Джерело озвучення:
DniproFilm
Info

Video
ID : 0
Format : MPEG-4 Visual
Format profile : Advanced [email protected]
Format settings : BVOP2
Format settings, BVOP : 2
Format settings, QPel : No
Format settings, GMC : No warppoints
Format settings, Matrix : Default (H.263)
Muxing mode : Packed bitstream
Codec ID :
Codec ID/Hint :
Duration : 48 min 54 s
Bit rate : 1 765 kb/s
Width : 720 pixels
Height : 300 pixels
Display aspect ratio : 2.40:1
Frame rate : 23.976 (24000/1001) FPS
Color space : YUV
Chroma subsampling : 4:2:0
Bit depth : 8 bits
Scan type : Progressive
Compression mode : Lossy
Bits/(Pixel*Frame) : 0.341
Stream size : 618 MiB (82%)
Writing library : 67

Audio
ID : 1
Format : AC-3
Format/Info : Audio Coding 3
Commercial name : Dolby Digital
Codec ID : 2000
Duration : 48 min 54 s
Bit rate mode : Constant
Bit rate : 384 kb/s
Channel(s) : 6 channels
Channel positions : Front: L C R, Side: L R, LFE
Sampling rate : 48.0 kHz
Frame rate : 31.250 FPS (1536 SPF)
Bit depth : 16 bits
Compression mode : Lossy
Stream size : 134 MiB (18%)
Alignment : Aligned on interleaves
Interleave, duration : 42 ms (1.00 video frame)
Interleave, preload duratio : 512 ms
Service kind : Complete Main
Скріншоти


Увага, присутня відео та аудіореклама.


Джерело: DniproFilm



Авторський реліз (завантажувати можна без реєстрації)
 Трекер:    Зареєстрований   

Завантажити / скачати серіал українською



відео для новачків



 Зареєстрований:   2018-12-25 02:27
 Розмір:   4.25 GB 
 Оцінка серіалу:   9.9/10 (Голосів: 8)
   
Ваш часовий пояс: GMT + 2 Години

Нова тема   Відповісти