Невинний (Сезон 1) / The Innocent Man (Season 1) (2018) 720p Ukr/Eng

Нові коментарі

Нова тема   Відповісти
Останній раз роздавалося casper101 (2020-01-19)
Автор Повідомлення
DniproFilm 
VIP


З нами з: 10.10.18
Востаннє: 26.11.20
Повідомлень: 443

2018-12-25 02:27  
Невинний (Сезон 1) / The Innocent Man (Season 1) (2018) 720p Ukr/Eng

Невинний (Сезон 1) / The Innocent Man (Season 1) (2018) 720p Ukr/Eng


Жанр: документальний, детектив, кримінальний
Країна: США



Кінокомпанія / телеканал: Netflix Studios
Режисер: Клей Твіл
Актори/ролі озвучують: Мойра Антас, Дж. Дж. Арендс, Сирена Мічеле Бурнс, Кайлеен Тереза Сасей, Сетх Мітчел Соннелл, Гарре Давіс, Олівія де Боутрай, Хезел МакФол та інші

Сюжет:
За основу сюжету використано книгу популярного американського автора Джона Гришима "Невинний: Вбивство та несправедливість у невеличкому містечку".
Ця історія цілком реальна. Рона Вільямсона, свого часу відомого спортсмена, засуджено за вбивство, якого він не скоював. Суд не повірив у його невинність та призначив вирок смертною карою. І все це попри неправдиві свідоцтва та непереконливі докази причетності Рона до скоєння вбивства Дебри Сью Картер, тіло якої було знайдено неподалік будинку Вільямсонів. 11 років він пробув у камері смертників, очікуючи виконання вироку. Але коли криміналісти навчилися проводити тест ДНК, експертиза та інші матеріали справи дозволили повністю виправдати нашого героя.


Тривалість: 1 серія: ~ 50 хв. (цілком серій: 6)
Перелік серій

1. Debbie and Denice
2. In Dreams
3. Rotten to the Core
4. Corpus Delicti
5. Smoking Guns
6. Snow Storm
Якість: 720p
Відео:
кодек:
розмір кадру: 1280x532
бітрейт: ~4000 кб/с

Аудіо # 1:
мова: українська
переклад: багатоголосий закадровий
кодек: 5.1
бітрейт: 384 кб/с

Аудіо # 2:
мова: англійська
переклад: оригінал
кодек: 5.1
бітрейт: 640 кб/с

Джерело озвучення:
DniproFilm
Info

Video
ID : 1
Format : AVC
Format/Info : Advanced Video Codec
Format profile : [email protected]
Format settings : CABAC / 4 Ref Frames
Format settings, CABAC : Yes
Format settings, ReFrames : 4 frames
Codec ID : V_MPEG4/ISO/AVC
Duration : 48 min 54 s
Bit rate : 3 946 kb/s
Width : 1 280 pixels
Height : 532 pixels
Display aspect ratio : 2.40:1
Frame rate mode : Constant
Frame rate : 23.976 (24000/1001) FPS
Standard : NTSC
Color space : YUV
Chroma subsampling : 4:2:0
Bit depth : 8 bits
Scan type : Progressive
Bits/(Pixel*Frame) : 0.242
Stream size : 1.35 GiB (79%)
Language : English
Default : Yes
Forced : No
Color range : Limited
Color primaries : BT.601 NTSC
Transfer characteristics : BT.601
Matrix coefficients : BT.601

Audio #1
ID : 2
Format : AC-3
Format/Info : Audio Coding 3
Commercial name : Dolby Digital
Codec ID : A_AC3
Duration : 48 min 54 s
Bit rate mode : Constant
Bit rate : 384 kb/s
Channel(s) : 6 channels
Channel positions : Front: L C R, Side: L R, LFE
Sampling rate : 48.0 kHz
Frame rate : 31.250 FPS (1536 SPF)
Bit depth : 16 bits
Compression mode : Lossy
Stream size : 134 MiB (8%)
Title : DniproFilm
Language : Ukrainian
Service kind : Complete Main
Default : Yes
Forced : No

Audio #2
ID : 3
Format : AC-3
Format/Info : Audio Coding 3
Codec ID : A_AC3
Duration : 48 min 23 s
Bit rate : 640 kb/s
Channel(s) : 6 channels
Sampling rate : 48.0 kHz
Frame rate : 31.250 FPS (1536 SPF)
Compression mode : Lossy
Stream size : 222 MiB (13%)
Language : English
Default : No
Forced : No
Скріншоти


Увага, присутня відео та аудіореклама.


Джерело: DniproFilm



Авторський реліз (завантажувати можна без реєстрації)
 Трекер:    Зареєстрований   

Завантажити / скачати серіал українською



відео для новачків



 Зареєстрований:   2018-12-25 02:27
 Розмір:   9.83 GB 
 Оцінка серіалу:   9/10 (Голосів: 4)
   
qarty1 
VIP


З нами з: 01.11.09
Востаннє: 29.11.20
Повідомлень: 399

2019-02-07 14:00  
90 тисяч в США людей просто так засуджено, в Україні певно більше нас суді, мусора всі продажні
Ваш часовий пояс: GMT + 2 Години

Нова тема   Відповісти