Джеймс Бонд. Агент 007: Живеш тільки двічі / James Bond: You Only Live Twice (1967) Remux 1080p 2хUkr/Eng | Sub Eng

Нові коментарі

Нова тема   Відповісти
Останній раз роздавалося MakRA (2020-09-22)
Автор Повідомлення
MakRA 
VIP


З нами з: 11.11.18
Востаннє: 22.09.20
Повідомлень: 1119

2018-12-25 02:09  
Джеймс Бонд. Агент 007: Живеш тільки двічі / James Bond: You Only Live Twice (1967) Remux 1080p 2хUkr/Eng | Sub Eng

Джеймс Бонд. Агент 007: Живеш тільки двічі / James Bond: You Only Live Twice (1967) Remux 1080p 2хUkr/Eng | Sub Eng


Жанр: бойовик, екшн, пригодницький, трилер
Країна: США, Велика Британія



Кінокомпанія: EON Productions
Режисер: Льюіс Гілберт [Lewis Gilbert]
Актори: Шон Коннері [Sir Thomas Sean Connery], Акіко Вакабаясі [Akiko Wakabayashi], Дональд Плезенс [Donald Pleasence], Карін Дор [Karin Dor], Тецуро Тамба [Tetsuro Tamba], Теру Сімада [Teru Shimada], Бернард Лі [Bernard Lee], Десмонд Ллевелін [Desmond Llewelyn], Лоїс Максвелл [Lois Maxwell], Чарльз Грей [Charles Grey].

Сюжет:
П'ятий кінофільм про англійського суперагента Джеймса Бонда. Екранізація однойменної новели Яна Флемінга.

Легендарний агент 007 завжди прийде на допомогу людству, якому будуть загрожувати підступні терористи і злісні диктатори, які мріють захопити світ. Ось і цього разу йому знову доведеться вступити в боротьбу з невловимою організацією СПЕКТР, яка збирається спровокувати конфлікт між провідними світовими державами. А оскільки справа відбувається в Японії, 007 доведеться відправитися в країну якудза, ніндзя і гейш, де на нього вже чекають з великим нетерпінням.

В цьому фільмі вперше буде показано обличчя Ставро Блофельда.


Тривалість: 01:56:58
Якість: Remux 1080p
Відео:
кодек:
розмір кадру: 1920x1080
бітрейт: 26,9 Мб/с

Аудіо # 1:
мова: українська
переклад: багатоголосий закадровий 1+1
кодек: 2.0
бітрейт: 256 кб/с

Аудіо # 2:
мова: українська
переклад: багатоголосий закадровий "Так Треба Продакшн"
кодек: 2.0
бітрейт: 256 кб/с

Аудіо # 3:
мова: англійська
переклад: оригінал
кодек: 2.0
бітрейт: 224 кб/с

Аудіо # 4:
мова: англійська
переклад: оригінал
кодек: -HD MA 5.1
бітрейт: 3840 kb/s

Джерело озвучення 1:

Джерело озвучення 2:
Так Треба Продакшн

Субтитри:
мова: англійська
тип: пререндерні
формат: *.pgs
Info
General
Unique ID : 105044826168799466207007821245368856242 (0x4F06E5CA9099DA8E6DBB219170056EB2)
Complete name : E:\! Моя роздача\James Bond You Only Live Twice (1967) Remux 1080p 2хUkrEng Sub Eng.
Format :
Format version : Version 4 / Version 2
File size : 25.7 GiB
Duration : 1 h 56 min
Overall bit rate mode : Variable
Overall bit rate : 31.5 Mb/s
Encoded date : UTC 2018-12-25 21:04:44
Writing application : v25.0.0 ('Prog Noir') 64-bit
Writing library : libebml v1.3.6 + v1.4.9

Video
ID : 1
Format : AVC
Format/Info : Advanced Video Codec
Format profile : [email protected]
Format settings, CABAC : Yes
Format settings, RefFrames : 4 frames
Codec ID : V_MPEG4/ISO/AVC
Duration : 1 h 56 min
Bit rate mode : Variable
Bit rate : 26.9 Mb/s
Maximum bit rate : 35.0 Mb/s
Width : 1 920 pixels
Height : 1 080 pixels
Display aspect ratio : 16:9
Frame rate mode : Constant
Frame rate : 23.976 (24000/1001) FPS
Color space : YUV
Chroma subsampling : 4:2:0
Bit depth : 8 bits
Scan type : Progressive
Bits/(Pixel*Frame) : 0.541
Stream size : 22.0 GiB (85%)
Title : James Bond: You Only Live Twice (1967) Remux 1080p 2хUkr/Eng | Sub Eng
Language : Ukrainian
Default : Yes
Forced : Yes

Audio #1
ID : 2
Format : AC-3
Format/Info : Audio Coding 3
Format settings, Endianness : Big
Codec ID : A_AC3
Duration : 1 h 56 min
Bit rate mode : Constant
Bit rate : 256 kb/s
Channel(s) : 2 channels
Channel positions : Front: L R
Sampling rate : 48.0 kHz
Frame rate : 31.250 FPS (1536 SPF)
Bit depth : 16 bits
Compression mode : Lossy
Stream size : 214 MiB (1%)
Title : MVO [1+1]
Language : Ukrainian
Service kind : Complete Main
Default : Yes
Forced : Yes

Audio #2
ID : 3
Format : AC-3
Format/Info : Audio Coding 3
Format settings, Endianness : Big
Codec ID : A_AC3
Duration : 1 h 56 min
Bit rate mode : Constant
Bit rate : 256 kb/s
Channel(s) : 2 channels
Channel positions : Front: L R
Sampling rate : 48.0 kHz
Frame rate : 31.250 FPS (1536 SPF)
Bit depth : 16 bits
Compression mode : Lossy
Delay relative to video : 1 s 500 ms
Stream size : 214 MiB (1%)
Title : MVO ["Так Треба Продакшн"]
Language : Ukrainian
Service kind : Complete Main
Default : No
Forced : No

Audio #3
ID : 4
Format : AC-3
Format/Info : Audio Coding 3
Format settings, Endianness : Big
Codec ID : A_AC3
Duration : 1 h 56 min
Bit rate mode : Constant
Bit rate : 224 kb/s
Channel(s) : 2 channels
Channel positions : Front: L R
Sampling rate : 48.0 kHz
Frame rate : 31.250 FPS (1536 SPF)
Bit depth : 16 bits
Compression mode : Lossy
Stream size : 187 MiB (1%)
Title : Original
Language : English
Service kind : Complete Main
Default : No
Forced : No

Audio #4
ID : 5
Format :
Format/Info : Digital Theater Systems
Format profile : MA / Core
Mode : 16
Format settings, Endianness : Big
Codec ID : A_DTS
Duration : 1 h 56 min
Bit rate mode : Variable / Constant
Bit rate : 3 840 kb/s / 1 509 kb/s
Channel(s) : 6 channels
Channel positions : Front: L C R, Side: L R, LFE
Sampling rate : 48.0 kHz
Frame rate : 93.750 FPS (512 SPF)
Bit depth : 24 bits
Compression mode : Lossless / Lossy
Stream size : 3.15 GiB (12%)
Title : Original
Language : English
Default : No
Forced : No

Text
ID : 6
Format : PGS
Muxing mode : zlib
Codec ID : S_HDMV/PGS
Codec ID/Info : Picture based subtitle format used on BDs/HD-DVDs
Duration : 1 h 56 min
Bit rate : 21.8 kb/s
Count of elements : 1720
Stream size : 18.1 MiB (0%)
Title : Eng
Language : English
Default : No
Forced : No
Скріншоти
Джерело: &
Особиста оцінка: 10 - без зайвих вагань рекомендую всім!



Золотий реліз (завантажене не впливає на рейтинг)
 Трекер:    Зареєстрований   

Завантажити / скачати фільм українською



відео для новачків



 Зареєстрований:   2018-12-26 01:21
 Розмір:   25.73 GB 
 Оцінка фільму:   10/10 (Голосів: 7)
   
11FrYkT 
Модератор відео


З нами з: 20.02.11
Востаннє: 22.09.20
Повідомлень: 7001

2018-12-25 11:24  
MakRA , тут не додано від так треба продакшн, де логіка. Додайте доріжки
+380954897458 
VIP


З нами з: 02.06.17
Востаннє: 18.09.20
Повідомлень: 942

2018-12-25 11:57  
Цитата:
Лд Плезенсоїс Максвелл

Напортачили! Дональда Плезенса приклеїли до Лоїс Максвелл. :-))
Після "Доктора Ноу" мій улюблений фільм про Бонда з Шоном.

MakRA 
VIP


З нами з: 11.11.18
Востаннє: 22.09.20
Повідомлень: 1119

2018-12-25 12:45  
11FrYkT
You Only Live Twice (1967).01h52m03s.[5.1-384].25fps.[Hurtom-Romario_O].
різниця 4хв

Додано через 54 секунди:

+380954897458
Дякую,виправив. Буває)

igor911 
Модератор відео


З нами з: 18.01.08
Востаннє: 22.09.20
Повідомлень: 15000

2018-12-25 13:55  
MakRA написано:
різниця 4хв

в релізі під спойлером інші релізи https://toloka.to/t77758 є дві доріжки, в т.ч. ТТП, тривалість така сама ,як тут

MakRA 
VIP


З нами з: 11.11.18
Востаннє: 22.09.20
Повідомлень: 1119

2018-12-25 13:59  
igor911
ок, питання, видає помилку ((
Файл є непідтримуваним форматом контейнера (exit code: 2)

Додано через 1 хвилину 30 секунд:

MakRA
Другий день воюю з додатковими доріжками...

Lyolic 
VIP


З нами з: 04.08.09
Востаннє: 22.09.20
Повідомлень: 541

2018-12-25 21:17  
Невже так важко назвати Британію Великою? Happy
Чи в світі може бути тільки одна вєлікая країна? )))

MakRA 
VIP


З нами з: 11.11.18
Востаннє: 22.09.20
Повідомлень: 1119

2018-12-25 21:42  
Lyolic написано:
Великобританія

Сарказм незрозумілий)
Повна назва : Сполу́чене Королі́вство Вели́кої Брита́нії та Півні́чної Ірла́ндії. (Скорочено -Сполу́чене Королі́вство)

11FrYkT 
Модератор відео


З нами з: 20.02.11
Востаннє: 22.09.20
Повідомлень: 7001

2018-12-25 23:06  
MakRA написано:
різниця 4хв

бо у вас фпс 23.976 а там 25, таку помилку видає саме від доріжки з аві роздачі?

MakRA 
VIP


З нами з: 11.11.18
Востаннє: 22.09.20
Повідомлень: 1119

2018-12-26 01:20  
Добавлена доріжка від "Так Треба Продакшн"
Lyolic 
VIP


З нами з: 04.08.09
Востаннє: 22.09.20
Повідомлень: 541

2018-12-26 05:08  
MakRA написано:
Сполу́чене Королі́вство Вели́кої Брита́нії та Півні́чної Ірла́ндії

От жеж ) Ніяких вєліків )
І з цитатами акуратніше, я ж не писав такого )
вікі

Ваш часовий пояс: GMT + 2 Години

Нова тема   Відповісти