Мауглі: Легенда джунглів / Mowgli: Legend of the Jungle (2018) 1080p Ukr/Eng | Sub Eng

Нові коментарі

Нова тема   Відповісти
Автор Повідомлення
Anonymous 







2018-12-24 19:32  
Мауглі: Легенда джунглів / Mowgli: Legend of the Jungle (2018) 1080p Ukr/Eng | Sub Eng

Мауглі: Легенда джунглів / Mowgli: Legend of the Jungle (2018) 1080p Ukr/Eng | Sub Eng


Жанр: пригодницький, драма, фентезі
Країна: Велика Британія



Кінокомпанія: The Imaginarium Studios, Warner Bros. Pictures, Netflix
Режисер: Енді Серкіс
Сюжет:
Сюжет добре відомий – це історія про дорослішання дитини на ім'я Мауглі у вовчій зграї в джунглях Індії. Він вчиться суворими законами джунглів під опікою ведмедя Балу і пантери Багіри, а згодом приймає мешканців диких джунглів за своїх. Щоправда в новому проекті буде показано темну сторону мешканців непрохідних лісів, де звірі виглядатимуть не такими добрими і привітними як в попередніх адаптаціях та оригінальному романі Кіплінга…


Реліз без реклами


Тривалість: 01:44:53
Якість: 1080p
Відео:
кодек:
розмір кадру: 1920 х 800
бітрейт: 5656 кб/с

Аудіо:
мова: українська
переклад: багатоголосий закадровий | DniproFilm
кодек: 5.1
бітрейт: 384 кб/с

Аудіо:
мова: англійська
переклад: оригінал
кодек: E-AC-3 5.1
бітрейт: 640 кб/с

Субтитри:
мова: англійська
тип: програмні (м'які)
формат: *.srt
Info
Complete name : H:\Фільми\Mowgli.Legend.of.the.Jungle..1080p.[Ukr.Eng.Sub.Eng][HURTOM].
Format :
Format version : Version 4
File size : 4.89 GiB
Duration : 1 h 44 min
Overall bit rate : 6 679 kb/s
Encoded date : UTC 2018-12-20 15:42:14
Writing application : v27.0.0 ('Metropolis') 64-bit
Writing library : libebml v1.3.6 + v1.4.9

Video
ID : 1
Format : AVC
Format/Info : Advanced Video Codec
Format profile : [email protected]
Format settings : CABAC / 5 Ref Frames
Format settings, CABAC : Yes
Format settings, ReFrames : 5 frames
Codec ID : V_MPEG4/ISO/AVC
Duration : 1 h 44 min
Bit rate : 5 656 kb/s
Width : 1 920 pixels
Height : 800 pixels
Display aspect ratio : 2.40:1
Frame rate mode : Constant
Frame rate : 23.976 (24000/1001) FPS
Color space : YUV
Chroma subsampling : 4:2:0
Bit depth : 8 bits
Scan type : Progressive
Bits/(Pixel*Frame) : 0.154
Stream size : 4.14 GiB (85%)
Writing library : core 157 r2935 545de2f
Encoding settings : cabac=1 / ref=5 / deblock=1:-2:-2 / analyse=0x3:0x113 / me=hex / subme=8 / psy=1 / psy_rd=1.00:0.00 / mixed_ref=1 / me_range=16 / chroma_me=1 / trellis=2 / 8x8dct=1 / cqm=0 / deadzone=21,11 / fast_pskip=1 / chroma_qp_offset=-2 / threads=12 / lookahead_threads=2 / sliced_threads=0 / nr=0 / decimate=1 / interlaced=0 / bluray_compat=0 / constrained_intra=0 / bframes=3 / b_pyramid=2 / b_adapt=1 / b_bias=0 / direct=3 / weightb=1 / open_gop=0 / weightp=2 / keyint=250 / keyint_min=23 / scenecut=40 / intra_refresh=0 / rc_lookahead=50 / rc=crf / mbtree=1 / crf=17.0 / qcomp=0.60 / qpmin=0 / qpmax=69 / qpstep=4 / ip_ratio=1.40 / aq=1:1.00
Language : English
Default : Yes
Forced : No

Audio #1
ID : 2
Format : AC-3
Format/Info : Audio Coding 3
Commercial name : Dolby Digital
Codec ID : A_AC3
Duration : 1 h 44 min
Bit rate mode : Constant
Bit rate : 384 kb/s
Channel(s) : 6 channels
Channel layout : L R C LFE Ls Rs
Sampling rate : 48.0 kHz
Frame rate : 31.250 FPS (1536 SPF)
Bit depth : 16 bits
Compression mode : Lossy
Stream size : 286 MiB (6%)
Title : MVO - [DniproFilm]
Language : Ukrainian
Service kind : Complete Main
Default : Yes
Forced : No

Audio #2
ID : 3
Format : E-AC-3
Format/Info : Enhanced AC-3
Commercial name : Dolby Digital Plus
Codec ID : A_EAC3
Duration : 1 h 44 min
Bit rate mode : Constant
Bit rate : 640 kb/s
Channel(s) : 6 channels
Channel layout : L R C LFE Ls Rs
Sampling rate : 48.0 kHz
Frame rate : 31.250 FPS (1536 SPF)
Compression mode : Lossy
Stream size : 480 MiB (10%)
Title : English
Language : English
Service kind : Complete Main
Default : No
Forced : No

Text
ID : 4
Format : UTF-8
Codec ID : S_TEXT/UTF8
Codec ID/Info : UTF-8 Plain Text
Duration : 1 h 34 min
Bit rate : 24 b/s
Count of elements : 706
Stream size : 17.1 KiB (0%)
Title : English
Language : English
Default : No
Forced : No
Скріншоти





Джерело: та DniproFilm
Особиста оцінка: 6 - третій сорт - не брак


Авторський реліз (завантажувати можна без реєстрації)
 Трекер:    Зареєстрований   

Завантажити / скачати фільм українською



відео для новачків



 Зареєстрований:   2018-12-24 19:32
 Розмір:   4.89 GB 
 Оцінка фільму:   8.7/10 (Голосів: 31)
   
-Star-Lord- 
VIP


З нами з: 09.08.18
Востаннє: 18.10.19
Повідомлень: 1141

2018-12-27 12:48  
Аудіодоріжка теж без реклами?
Anonymous 







2018-12-27 15:37  
...
dnepr s.a. 
Новенький


З нами з: 24.01.14
Востаннє: 14.10.19
Повідомлень: 20

2019-01-02 17:31  
Чудовий реліз: гарна якість, ніякої реклами! Рекомендую.

Не те, що в цих покидьків із Дніпрофільма, що пхають рекламу у відеофайли.

O_omarella! 
Свій


З нами з: 14.06.13
Востаннє: 15.10.19
Повідомлень: 133

2019-01-02 22:23  
Мені сподобався. Звісно не те що в дитинстві, але разок переглянути можна.
antik_2008 
Релізер і модератор відео


З нами з: 20.10.08
Востаннє: 18.10.19
Повідомлень: 2489

2019-01-06 02:48  
7|10
Ваш часовий пояс: GMT + 2 Години

Нова тема   Відповісти