Константин: Володар темряви / Constantine (2005) AVC Ukr/Eng | Sub Eng

Нові коментарі

Нова тема   Відповісти
Автор Повідомлення
staf777 
Відео Гуртом - підтримка та поширення
Відео Гуртом - підтримка та поширення


З нами з: 16.11.16
Востаннє: 22.04.19
Повідомлень: 2281

2018-12-24 14:59  
Константин: Володар темряви / Constantine (2005) AVC Ukr/Eng | Sub Eng

Константин: Володар темряви / Constantine (2005) AVC Ukr/Eng | Sub Eng


Жанр: містика, жахи, драма, бойовик, детектив
Країна: США



Кіностудія / кінокомпанія: Warner Bros, Village Roadshow Pictures, DC Comics
Режисер: Френсіс Лоуренс / Francis Lawrence
Актори: Кіану Рівз / Keanu Reeves, Рейчел Вайс / Rachel Weisz, Шайа ЛаБаф / Shia LaBeouf, Тільда Суінтон / Tilda Swinton, Джимон Хунсу / Djimon Hounsou, Макс Бейкер / Max Baker, Прюітт Тейлор Вінс / Pruitt Taylor Vince та інші.

Сюжет:
Джону Константину вдалося не тільки побувати у пеклі, але й повернутися назад. Народившись зі здібностями, які неподобались йому самому — здатністю бачити янголів і демонів, які є на землі у вигляді людей, — Константин під тиском обставин намагався здійснити самогубство, аби позбавитись від огидних видінь. Проте невдало. Врятований проти його власної волі він знову опиняється у світі живих.

Тепер, помічений печаткою самогубства і отримавши тимчасове право на життя, він патрулює кордон, який розділяє рай і пекло, марно сподіваючись на спасіння через боротьбу з демонами. Але й Константин не святий. Все більше розчаровуючись в оточуючому його світі, ворогуючи з пеклом, втомившись жити, він починає палити і пити, з презирством ставлячись до самої ідеї героїзму. Константин буде боротися за вашу душу, але йому не потрібне ні ваше захоплення, ні подяка.

Але найменше він чекає на ваше співчуття! Усе, що йому потрібно - це знайти вихід, врятувати свою душу від пекла. Коли, співробітниця поліції у відчаї звертається до Константина за допомогою у розкритті загадкової смерті її сестри-близнючки, розслідування заводить їх у невидимий для людей світ демонів й янголів.

Потрапивши в низку катастрофічних подій потойбіччя, Константин і Анджела настільки занурюються в них, що набуття миру і спокою будь-якою ціною стає для них самою метою ...


Офіційний трейлер
Цікаві факти про фільм


• По первинному задуму продюсерського штабу зйомки картини планувалося доручити Тарсему Сінгу, а в головній ролі повинен був бути задіяний Ніколас Кейдж. Проте, режисер із самого початку був проти кандидатури Ніколаса, і зрештою покинув проект. Через деякий час його прикладу послідував і Ніколас Кейдж.

• Незважаючи на те, що картина «Константин» була заснована на сюжеті коміксу "Hellblazer" (Посланник пекла), було прийнято рішення назвати картину інакше, щоб не вийшло плутанини з іншою схожою назвою "Hellraiser" (Повсталий з пекла). Цікаво, що спочатку автор коміксу Клайв Баркер планував назвати своє дітище також - "Hellraiser", але все-таки зупинився на першому варіанті.

• У коміксі головний діючий герой Джон Константин був родом з Ліверпуля, а в кінофільмі він став уродженцем Каліфорнії. Багато в чому таке рішення було обумовлено вибором актора, який виконував головну роль. Кіану Рівз типовий американець і правдоподібно зіграти британця у нього навряд чи б вийшло.

• Прототипом Джона Костантина за запевненнями Клайва Баркера став популярний співак Стінг.

• На роль Балтазара передбачалося взяти Пітера Стормара.

• Коли на початку фільму одержима демоном дівчинка повзає по стелі, вона вигукує «Papatayin natin sila!», що на одному з філіппінських діалектів означає "Ми вб'ємо їх усіх!".

• Для зйомок картини була зроблена точна копія у натуральну величину актриси Рейчел Вайс для сцени, де був показаний труп Ізабель Доусон.

• Татуювання на руках Костянтина - алхімічний символ Червоного Короля, який захищає того, хто його носить.

• Щоб вжитися в роль, Рейчел Вайс відвідувала морг.

• Нацистський прапор, в який було по фільму загорнуто Спис долі, після зйомок був знищений.

• Фільм заснований на серії коміксів Hellblazer 1988 року. Вперше Джон Костянтин з'явився в коміксі Алана Мура "Swamp Thing".
рейтинг MPAA: R - особам до 17 років обов'язкова присутність батьків або дорослого опікуна
Вікова категорія: 16+

Тривалість: 02:00:47
Якість: AVC
Відео:
кодек:
розмір кадру: 1028x424
бітрейт: 1687 кб/с

Аудіо # 1:
мова: українська
переклад: багатоголосий закадровий
кодек: 2.0
бітрейт: 192 кб/с
Інформація про озвучення

Фільм озвучено на Студії "ТВ+" на замовлення ICTV.

Ролі озвучили: Андрій Твердак (Кіану Рівз / Джон Константин), Євген Пашин і один жіночий (поки не встановлений)
Аудіо # 2:
мова: англійська
переклад: оригінал
кодек: 5.1
бітрейт: 448 кб/с

Субтитри # 1-3:
мова: англійська
тип: програмні (м'які)
формат: *.srt

Збережено оригінальні розділи, як на Blu-ray.
Info
General
Unique ID : 24539897343335762333888594415787517213 (0x1276365A1DE0E472E5D3087BF2BD251D)
Complete name : H:\» Українське озвучення » Фільми\Жахи\Constantine (2005) [Ukr,Eng sub.Eng] AVC [Hurtom].
Format :
Format version : Version 4 / Version 2
File size : 1.96 GiB
Duration : 2 h 0 min
Overall bit rate : 2 329 kb/s
Movie name : Constantine (2005) [Ukr,Eng sub.Eng] AVC [Hurtom]
Encoded date : UTC 2018-12-24 12:08:55
Writing application : v24.0.0 ('Beyond The Pale') 64-bit
Writing library : libebml v1.3.6 + v1.4.9
Cover : Yes
Attachments : cover.jpg

Video
ID : 1
Format : AVC
Format/Info : Advanced Video Codec
Format profile : [email protected]
Format settings : CABAC / 12 Ref Frames
Format settings, CABAC : Yes
Format settings, ReFrames : 12 frames
Codec ID : V_MPEG4/ISO/AVC
Duration : 2 h 0 min
Bit rate : 1 687 kb/s
Width : 1 028 pixels
Height : 424 pixels
Display aspect ratio : 2.40:1
Frame rate mode : Constant
Frame rate : 23.976 (24000/1001) FPS
Color space : YUV
Chroma subsampling : 4:2:0
Bit depth : 8 bits
Scan type : Progressive
Bits/(Pixel*Frame) : 0.161
Stream size : 1.42 GiB (72%)
Title : potroks
Writing library : core 152 r2851M ba24899
Encoding settings : cabac=1 / ref=12 / deblock=1:-1:-1 / analyse=0x3:0x132 / me=umh / subme=11 / psy=1 / psy_rd=0.96:0.00 / mixed_ref=1 / me_range=48 / chroma_me=1 / trellis=2 / 8x8dct=1 / cqm=0 / deadzone=21,11 / fast_pskip=0 / chroma_qp_offset=-2 / threads=9 / lookahead_threads=2 / sliced_threads=0 / nr=0 / decimate=0 / interlaced=0 / bluray_compat=0 / constrained_intra=0 / bframes=13 / b_pyramid=2 / b_adapt=2 / b_bias=0 / direct=3 / weightb=1 / open_gop=0 / weightp=2 / keyint=240 / keyint_min=23 / scenecut=40 / intra_refresh=0 / rc_lookahead=0 / rc=2pass / mbtree=0 / bitrate=1687 / ratetol=1.0 / qcomp=0.70 / qpmin=0 / qpmax=69 / qpstep=4 / cplxblur=20.0 / qblur=0.5 / vbv_maxrate=50000 / vbv_bufsize=35714 / nal_hrd=none / filler=0 / ip_ratio=1.40 / pb_ratio=1.30 / aq=1:0.80
Language : English
Default : Yes
Forced : Yes
Color range : Limited
Color primaries : BT.709
Transfer characteristics : BT.709
Matrix coefficients : BT.709

Audio #1
ID : 2
Format : AC-3
Format/Info : Audio Coding 3
Codec ID : A_AC3
Duration : 2 h 0 min
Bit rate mode : Constant
Bit rate : 192 kb/s
Channel(s) : 2 channels
Channel positions : Front: L R
Sampling rate : 48.0 kHz
Frame rate : 31.250 FPS (1536 SPF)
Bit depth : 16 bits
Compression mode : Lossy
Stream size : 166 MiB (8%)
Language : Ukrainian
Service kind : Complete Main
Default : Yes
Forced : Yes

Audio #2
ID : 3
Format : AC-3
Format/Info : Audio Coding 3
Codec ID : A_AC3
Duration : 2 h 0 min
Bit rate mode : Constant
Bit rate : 448 kb/s
Channel(s) : 6 channels
Channel positions : Front: L C R, Side: L R, LFE
Sampling rate : 48.0 kHz
Frame rate : 31.250 FPS (1536 SPF)
Bit depth : 16 bits
Compression mode : Lossy
Stream size : 387 MiB (19%)
Title : Original | DD 5.1 @ 448 kbps
Language : English
Service kind : Complete Main
Default : No
Forced : No

Text #1
ID : 4
Format : UTF-8
Codec ID : S_TEXT/UTF8
Codec ID/Info : UTF-8 Plain Text
Duration : 1 h 57 min
Bit rate : 33 b/s
Count of elements : 937
Stream size : 28.6 KiB (0%)
Title : Full
Language : English
Default : No
Forced : No

Text #2
ID : 5
Format : UTF-8
Codec ID : S_TEXT/UTF8
Codec ID/Info : UTF-8 Plain Text
Duration : 1 h 59 min
Bit rate : 35 b/s
Count of elements : 1041
Stream size : 30.8 KiB (0%)
Title : SDH
Language : English
Default : No
Forced : No

Text #3
ID : 6
Format : UTF-8
Codec ID : S_TEXT/UTF8
Codec ID/Info : UTF-8 Plain Text
Duration : 1 h 59 min
Bit rate : 41 b/s
Count of elements : 1041
Stream size : 36.4 KiB (0%)
Title : SDH-Colored
Language : English
Default : No
Forced : No

Menu
00:00:00.000 : :The Spear of Destiny
00:02:48.168 : :The Exorcism
00:06:43.403 : :Demon in the Mirror
00:10:33.300 : :Leap of Lost Faith
00:14:21.528 : :Death in Their Paths
00:17:59.912 : :Little Talks
00:20:31.397 : :The Rules
00:24:31.470 : :Message to Angela
00:27:22.641 : :Personal Swarm
00:29:42.281 : :Midnite and Balthazar
00:34:22.060 : :Sounds Like a Theory
00:37:36.087 : :Demonic Light Show
00:41:18.643 : :To Hell and Back
00:46:49.974 : :Hennessy to the Last Drop
00:50:29.359 : :World Behind the World
00:53:33.878 : :Things Left Behind
00:58:03.480 : :Beeman Bedeviled
01:01:25.182 : :No Turning Back
01:04:32.536 : :Submerged
01:09:17.654 : :Firepower for Protection
01:12:24.340 : :Balthazar's Last Rites
01:16:06.229 : :Blown and Blasted Away
01:18:30.539 : :Electric Chair Visions
01:22:36.785 : :Not Always Like in Books
01:25:50.813 : :Holy Water Assult
01:29:52.054 : :Devil Inside Her
01:34:05.973 : :Gabriels Road to Salvation
01:37:07.989 : :Bloodletting
01:39:59.160 : :Satan
01:42:57.672 : :Archangel and Devil
01:45:03.630 : :Luciferocious Lease on Life
01:48:28.002 : :Get Used To It
01:51:29.516 : :Safekeeping
01:53:52.826 : :End Credits







Джерело: ріп відео, оригінальні доріжка та субтитри - Запис з ТБ: Sando7, karvai0;
Синхронізація: patriot2305; постер - andy_pit (Гуртом).


 Трекер:    Зареєстрований   

Завантажити / скачати фільм українською



відео для новачків



 Зареєстрований:   2018-12-24 16:06
 Розмір:   1.96 GB 
 Оцінка фільму:   9.2/10 (Голосів: 27)
   
bot 
робот


З нами з: 30.09.07
Востаннє: 26.05.05
Повідомлень: 21229

2018-12-24 16:06  
Тему перенесено з Анонси релізів до форуму Фільми


staf777

kobra1488 
Частий відвідувач


З нами з: 28.01.13
Востаннє: 10.04.19
Повідомлень: 28

2018-12-31 22:29  
Дякую за субтитри!
Ваш часовий пояс: GMT + 2 Години

Нова тема   Відповісти