Інтерв'ю З Вампіром / Interview with the Vampire: The Vampire Chronicles (1994) 1080р H.265 Ukr/Eng | Sub Eng

Нові коментарі

Нова тема   Відповісти
Автор Повідомлення
Anonymous 







2018-12-24 12:11  
Інтерв'ю З Вампіром / Interview with the Vampire: The Vampire Chronicles (1994) 1080р H.265 Ukr/Eng | Sub Eng

Інтерв'ю З Вампіром / Interview with the Vampire: The Vampire Chronicles (1994) 1080р H.265 Ukr/Eng | Sub Eng


Жанр: драма, містика, жахи
Країна: США
Кінокомпанія: Geffen Pictures
Режисер: Ніл Джордан
Актори: Том Круз (Tom Cruise), Бред Піт (Brad Pitt), Антоніо Бандерас (Antonio Banderas), Крістіан Слейтер (Christian Slater), Стівен Рі, Кірстен Данст та інші

Сюжет:
До журналіста, ласого до сенсацій, приходить вампір, щоб розповісти історію свого життя. Все почалося в 1791 році, коли молодий плантатор Луї, що втратив дружину та дитину, захотів померти, але "народився для мороку"...

Тривалість: 02:02:33
Якість:
Відео:
кодек: H.265 (HEVC)
розмір кадру: 1920 x 1080
бітрейт: 5 597 кб/с
частота кадрів: 23.976 fps
біт піксель: 0.113 BPP
бітова глибина: 10 біт
Увага! Перед завантаженням переконайтесь, що ваш пристрій відтворення (та/або ПЗ) підтримує H.265 (HEVC)

Аудіо # 1:
мова: українська
переклад: багатоголосий закадровий
кодек: AC-3 5.1
бітрейт: 384 кб/с

Аудіо # 2:
мова: англійська
переклад: оригінал
кодек: AC-3 5.1
бітрейт: 384 кб/с

Субтитри # 1:
мова: англійська (Full),
тип: програмні (м'які)
формат: *.srt


Info
Код:
General
Unique ID                                : 161422509106597509400159727953412159808 (0x7970D82A8292041510B498892934F940)
Complete name                            : D:\Video\Interview With The Vampire - The Vampire Chronicles (1994) 1080p H.265 [UKR_ENG].
Format                                   :
Format version                           : Version 4 / Version 2
File size                                : 5.45 GiB
Duration                                 : 2 h 2 min
Overall bit rate                         : 6 368 kb/s
Movie name                               : Interview With The Vampire - The Vampire Chronicles (1994)
Encoded date                             : UTC 2018-12-23 22:00:15
Writing application                      : v20.0.0 ('I Am The Sun') 32-bit
Writing library                          : libebml v1.3.5 + v1.4.8
Cover                                    : Yes
Attachments                              : Cover.jpg

Video
ID                                       : 1
Format                                   : HEVC
Format/Info                              : High Efficiency Video Coding
Format profile                           : Main [email protected]@Main
Codec ID                                 : V_MPEGH/ISO/HEVC
Duration                                 : 2 h 2 min
Bit rate                                 : 5 597 kb/s
Width                                    : 1 920 pixels
Height                                   : 1 080 pixels
Display aspect ratio                     : 16:9
Frame rate mode                          : Constant
Frame rate                               : 23.976 (24000/1001) FPS
Color space                              : YUV
Chroma subsampling                       : 4:2:0
Bit depth                                : 10 bits
Bits/(Pixel*Frame)                       : 0.113
Stream size                              : 4.79 GiB (88%)
Title                                    : Interview With The Vampire - The Vampire Chronicles (1994)
Writing library                          : x265 2.9+8-27d8424c799d:[Windows][GCC 8.2.0][64 bit] 10bit
Encoding settings                        : cpuid=1049583 / frame-threads=3 / numa-pools=8 / wpp / no-pmode / no-pme / no-psnr / no-ssim / log-level=2 / input-csp=1 / input-res=1920x1080 / interlace=0 / total-frames=176304 / level-idc=0 / high-tier=1 / uhd-bd=0 / ref=4 / no-allow-non-conformance / no-repeat-headers / annexb / no-aud / no-hrd / info / hash=0 / no-temporal-layers / open-gop / min-keyint=23 / keyint=250 / gop-lookahead=0 / bframes=8 / b-adapt=2 / b-pyramid / bframe-bias=0 / rc-lookahead=80 / lookahead-slices=4 / scenecut=40 / radl=0 / no-intra-refresh / ctu=64 / min-cu-size=8 / rect / no-amp / max-tu-size=32 / tu-inter-depth=1 / tu-intra-depth=1 / limit-tu=0 / rdoq-level=2 / dynamic-rd=0.00 / no-ssim-rd / signhide / no-tskip / nr-intra=0 / nr-inter=0 / no-constrained-intra / no-strong-intra-smoothing / max-merge=3 / limit-refs=3 / limit-modes / me=3 / subme=5 / merange=57 / temporal-mvp / weightp / no-weightb / no-analyze-src-pics / deblock=-3:-3 / no-sao / no-sao-non-deblock / rd=4 / no-early-skip / rskip / no-fast-intra / no-tskip-fast / no-cu-lossless / no-b-intra / no-splitrd-skip / rdpenalty=0 / psy-rd=2.00 / psy-rdoq=1.50 / no-rd-refine / no-lossless / cbqpoffs=0 / crqpoffs=0 / rc=crf / crf=20.0 / qcomp=0.60 / qpstep=4 / stats-write=0 / stats-read=0 / ipratio=1.40 / pbratio=1.30 / aq-mode=3 / aq-strength=1.00 / cutree / zone-count=0 / no-strict-cbr / qg-size=32 / no-rc-grain / qpmax=69 / qpmin=0 / no-const-vbv / sar=0 / overscan=0 / videoformat=5 / range=0 / colorprim=2 / transfer=2 / colormatrix=2 / chromaloc=0 / display-window=0 / max-cll=0,0 / min-luma=0 / max-luma=1023 / log2-max-poc-lsb=8 / vui-timing-info / vui-hrd-info / slices=1 / no-opt-qp-pps / no-opt-ref-list-length-pps / no-multi-pass-opt-rps / scenecut-bias=0.05 / no-opt-cu-delta-qp / aq-motion / no-hdr / no-hdr-opt / no-dhdr10-opt / no-idr-recovery-sei / analysis-reuse-level=5 / scale-factor=0 / refine-intra=0 / refine-inter=0 / refine-mv=0 / no-limit-sao / ctu-info=0 / no-lowpass-dct / refine-mv-type=0 / copy-pic=1 / max-ausize-factor=1.0 / no-dynamic-refine / no-single-sei
Default                                  : Yes
Forced                                   : No

Audio #1
ID                                       : 2
Format                                   : AC-3
Format/Info                              : Audio Coding 3
Codec ID                                 : A_AC3
Duration                                 : 2 h 2 min
Bit rate mode                            : Constant
Bit rate                                 : 384 kb/s
Channel(s)                               : 6 channels
Channel positions                        : Front: L C R, Side: L R, LFE
Sampling rate                            : 48.0 kHz
Frame rate                               : 31.250 FPS (1536 SPF)
Bit depth                                : 16 bits
Compression mode                         : Lossy
Stream size                              : 337 MiB (6%)
Title                                    : БЗ - Novy Kanal
Language                                 : Ukrainian
Service kind                             : Complete Main
Default                                  : Yes
Forced                                   : No

Audio #2
ID                                       : 3
Format                                   : AC-3
Format/Info                              : Audio Coding 3
Codec ID                                 : A_AC3
Duration                                 : 2 h 2 min
Bit rate mode                            : Constant
Bit rate                                 : 384 kb/s
Channel(s)                               : 6 channels
Channel positions                        : Front: L C R, Side: L R, LFE
Sampling rate                            : 48.0 kHz
Frame rate                               : 31.250 FPS (1536 SPF)
Bit depth                                : 16 bits
Compression mode                         : Lossy
Stream size                              : 337 MiB (6%)
Title                                    : Original
Language                                 : English
Service kind                             : Complete Main
Default                                  : No
Forced                                   : No

Text
ID                                       : 4
Format                                   : UTF-8
Codec ID                                 : S_TEXT/UTF8
Codec ID/Info                            : UTF-8 Plain Text
Duration                                 : 1 h 53 min
Bit rate                                 : 39 b/s
Count of elements                        : 1234
Stream size                              : 32.7 KiB (0%)
Title                                    : Full
Language                                 : English
Default                                  : Yes
Forced                                   : No

Menu
00:00:00.000                             : en:Getting Used to Killing
00:03:01.473                             : en:A Cursed Blace Burns
00:05:51.101                             : en:"Take Her, Louis!"
00:09:30.487                             : en:Claudia; "...and So Shall We"
00:11:23.892                             : en:Lestat's Gift; One Happy Family
00:16:17.226                             : en:"You Made Us What We Are"
00:24:22.002                             : en:"Good Night, Sweet Prince"
00:30:51.767                             : en:The Trail of Vulgar Fictions
00:36:15.340                             : en:Alive Again in Paris
00:40:51.324                             : en:Santiago and Armand
00:50:17.389                             : en:A Stage Spectacle of Death
00:56:40.772                             : en:The Source of Evil
01:08:55.381                             : en:A Crime Among Us Vampires
01:10:29.100                             : en:Letting Go?
01:11:31.704                             : en:The Stamina for Immortality
01:14:11.280                             : en:A Mother for Claudia
01:19:44.571                             : en:A Mob of the Undead
01:23:56.615                             : en:Burned By the Light
01:24:32.484                             : en:Merciless Revenge
01:25:51.897                             : en:A Lesson I Don't Care to Learn
01:30:09.279                             : en:Back to the New World
01:34:13.690                             : en:The Scent of Death
01:36:23.945                             : en:"Do You Like Dying?"
01:40:33.694                             : en:A Passenger
01:43:35.000                             : en:A Lesson I Don't Care to Learn
01:46:00.396                             : en:Back to the New World
01:47:05.836                             : en:The Scent of Death
01:52:49.137                             : en:The Interviewer Doesn't Get It
01:54:47.089                             : en:The Interviewer's Passenger (Sympathy for the Devil); End Credits
Світлини




Джерело:
Особиста оцінка: 0 - не дивився


>>> Усі мої релізи <<<



Срібний реліз (на рейтинг впливає 50% завантаженого)
 Трекер:    Зареєстрований   

Завантажити / скачати фільм українською



відео для новачків



 Зареєстрований:   2018-12-24 12:11
 Розмір:   5.45 GB 
 Оцінка фільму:   9.6/10 (Голосів: 5)
   
Ваш часовий пояс: GMT + 2 Години

Нова тема   Відповісти