Надто крута для тебе / She's Out of My League (2010) 1080p H.265 Ukr/Eng | Sub Ukr/Eng

Нові коментарі

Нова тема   Відповісти
Автор Повідомлення
Anonymous 







2018-12-24 12:07  
Надто крута для тебе / She's Out of My League (2010) 1080p H.265 Ukr/Eng | Sub Ukr/Eng

Надто крута для тебе / She's Out of My League (2010) 1080p H.265 Ukr/Eng | Sub Ukr/Eng


Жанр: романтична комедія
Країна: США
Кінокомпанія: DreamWorks SKG, Mosaic Media Group; мейджор – Universal Pictures International (UPI)
Режисер: Джим Філд Сміт
Актори: Джей Барушель, Еліс Ів, Майк Воґель, Нейт Торренс, Ліндсей Слоун

Сюжет:
Офіцер транспортної охорони аеропорту Кірк - людина, що не чекає багато від життя та й взагалі доволі нерішучий чоловік. Його навіть подружка кинула, хоча саме вона з нього знущалась весь час їх знайомства. І ось одного разу він зустрічає ідеал жінки - Моллі. Та чи зможе він її завоювати, здолавши в першу чергу свою нерішучість і залежність від порад рідних і близьких, які лише погіршують становище?

Тривалість: 01:44:32
Якість:
Відео:
кодек: H.265 (HEVC)
розмір кадру: 1920 x 816
бітрейт: 3 157 кб/с
частота кадрів: 23.976 fps
біт піксель: 0.084 BPP
бітова глибина: 10 біт
Увага! Перед завантаженням переконайтесь, що ваш пристрій відтворення (та/або ПЗ) підтримує H.265 (HEVC)

Аудіо # 1:
мова: українська
переклад: професійний дубльований
кодек: AC-3 5.1
бітрейт: 448 кб/с

Аудіо # 2:
мова: англійська
переклад: оригінал
кодек: 5.1
бітрейт: 485 кб/с

Субтитри # 1:
мова: українська (Full),
тип: пререндерні
формат: *.pgs

Субтитри # 2:
мова: англійська (Full),
тип: програмні (м'які)
формат: *.srt


Info
Код:
General
Unique ID                                : 154973969630457904024794718503138985382 (0x7496E69F7E787A1B7A8AD63C0B6785A6)
Complete name                            : D:\Video\She's Out of My League (2010) 1080p H.265 [UKR_ENG].
Format                                   :
Format version                           : Version 4 / Version 2
File size                                : 2.99 GiB
Duration                                 : 1 h 44 min
Overall bit rate                         : 4 101 kb/s
Movie name                               : She's Out of My League (2010)
Encoded date                             : UTC 2018-12-22 18:18:38
Writing application                      : v20.0.0 ('I Am The Sun') 32-bit
Writing library                          : libebml v1.3.5 + v1.4.8
Cover                                    : Yes
Attachments                              : Cover.jpg

Video
ID                                       : 1
Format                                   : HEVC
Format/Info                              : High Efficiency Video Coding
Format profile                           : Main [email protected]@Main
Codec ID                                 : V_MPEGH/ISO/HEVC
Duration                                 : 1 h 44 min
Bit rate                                 : 3 157 kb/s
Width                                    : 1 920 pixels
Height                                   : 816 pixels
Display aspect ratio                     : 2.35:1
Frame rate mode                          : Constant
Frame rate                               : 23.976 (24000/1001) FPS
Color space                              : YUV
Chroma subsampling                       : 4:2:0
Bit depth                                : 10 bits
Bits/(Pixel*Frame)                       : 0.084
Stream size                              : 2.31 GiB (77%)
Title                                    : She's Out of My League (2010)
Writing library                          : x265 2.6+14-f09f3b4a2115:[Windows][MSVC 1912][64 bit] 10bit
Encoding settings                        : cpuid=1173503 / frame-threads=3 / numa-pools=8 / wpp / no-pmode / no-pme / no-psnr / no-ssim / log-level=2 / input-csp=1 / input-res=1920x816 / interlace=0 / total-frames=150380 / level-idc=0 / high-tier=1 / uhd-bd=0 / ref=5 / no-allow-non-conformance / no-repeat-headers / annexb / no-aud / no-hrd / info / hash=0 / no-temporal-layers / open-gop / min-keyint=23 / keyint=250 / gop-lookahead=0 / bframes=8 / b-adapt=2 / b-pyramid / bframe-bias=0 / rc-lookahead=80 / lookahead-slices=0 / scenecut=40 / no-intra-refresh / ctu=64 / min-cu-size=8 / no-rect / no-amp / max-tu-size=32 / tu-inter-depth=1 / tu-intra-depth=1 / limit-tu=0 / rdoq-level=2 / dynamic-rd=0.00 / no-ssim-rd / signhide / no-tskip / nr-intra=0 / nr-inter=0 / no-constrained-intra / no-strong-intra-smoothing / max-merge=3 / limit-refs=3 / limit-modes / me=3 / subme=7 / merange=57 / temporal-mvp / weightp / weightb / no-analyze-src-pics / deblock=-3:-3 / no-sao / no-sao-non-deblock / rd=4 / no-early-skip / no-rskip / no-fast-intra / no-tskip-fast / no-cu-lossless / no-b-intra / no-splitrd-skip / rdpenalty=0 / psy-rd=1.50 / psy-rdoq=1.00 / no-rd-refine / analysis-reuse-mode=0 / no-lossless / cbqpoffs=0 / crqpoffs=0 / rc=crf / crf=19.5 / qcomp=0.60 / qpstep=4 / stats-write=0 / stats-read=0 / ipratio=1.40 / pbratio=1.30 / aq-mode=3 / aq-strength=1.00 / cutree / zone-count=0 / no-strict-cbr / qg-size=32 / no-rc-grain / qpmax=69 / qpmin=0 / no-const-vbv / sar=0 / overscan=0 / videoformat=5 / range=0 / colorprim=2 / transfer=2 / colormatrix=2 / chromaloc=0 / display-window=0 / max-cll=0,0 / min-luma=0 / max-luma=1023 / log2-max-poc-lsb=8 / vui-timing-info / vui-hrd-info / slices=1 / no-opt-qp-pps / no-opt-ref-list-length-pps / no-multi-pass-opt-rps / scenecut-bias=0.05 / no-opt-cu-delta-qp / no-aq-motion / no-hdr / no-hdr-opt / no-dhdr10-opt / analysis-reuse-level=5 / scale-factor=0 / refine-intra=0 / refine-inter=0 / refine-mv=0 / no-limit-sao / ctu-info=0 / no-lowpass-dct / refine-mv-type=0 / copy-pic=1
Language                                 : English
Default                                  : Yes
Forced                                   : No

Audio #1
ID                                       : 2
Format                                   : AC-3
Format/Info                              : Audio Coding 3
Codec ID                                 : A_AC3
Duration                                 : 1 h 44 min
Bit rate mode                            : Constant
Bit rate                                 : 448 kb/s
Channel(s)                               : 6 channels
Channel positions                        : Front: L C R, Side: L R, LFE
Sampling rate                            : 48.0 kHz
Frame rate                               : 31.250 FPS (1536 SPF)
Bit depth                                : 16 bits
Compression mode                         : Lossy
Stream size                              : 335 MiB (11%)
Title                                    : ПД - Blu-Ray
Language                                 : Ukrainian
Service kind                             : Complete Main
Default                                  : Yes
Forced                                   : Yes

Audio #2
ID                                       : 3
Format                                   :
Format/Info                              : Advanced Audio Codec
Format profile                           : LC
Codec ID                                 : A_AAC-2
Duration                                 : 1 h 44 min
Bit rate                                 : 485 kb/s
Channel(s)                               : 6 channels
Channel positions                        : Front: L C R, Side: L R, LFE
Sampling rate                            : 48.0 kHz
Frame rate                               : 46.875 FPS (1024 SPF)
Compression mode                         : Lossy
Delay relative to video                  : 20 ms
Stream size                              : 363 MiB (12%)
Title                                    : Original
Language                                 : English
Default                                  : No
Forced                                   : No

Text #1
ID                                       : 4
Format                                   : PGS
Muxing mode                              : zlib
Codec ID                                 : S_HDMV/PGS
Codec ID/Info                            : Picture based subtitle format used on BDs/HD-DVDs
Duration                                 : 1 h 39 min
Bit rate                                 : 34.9 kb/s
Count of elements                        : 3180
Stream size                              : 24.8 MiB (1%)
Title                                    : Full
Language                                 : Ukrainian
Default                                  : No
Forced                                   : No

Text #2
ID                                       : 5
Format                                   : UTF-8
Codec ID                                 : S_TEXT/UTF8
Codec ID/Info                            : UTF-8 Plain Text
Duration                                 : 1 h 38 min
Bit rate                                 : 87 b/s
Count of elements                        : 1566
Stream size                              : 63.7 KiB (0%)
Title                                    : Full
Language                                 : English
Default                                  : No
Forced                                   : No

Menu
00:00:00.000                             : en:00:00:00.000
00:03:29.835                             : en:00:03:29.835
00:06:50.910                             : en:00:06:50.910
00:11:51.753                             : en:00:11:51.753
00:16:53.804                             : en:00:16:53.804
00:22:41.610                             : en:00:22:41.610
00:27:37.614                             : en:00:27:37.614
00:35:42.849                             : en:00:35:42.849
00:44:07.645                             : en:00:44:07.645
00:51:58.240                             : en:00:51:58.240
01:02:12.270                             : en:01:02:12.270
01:07:22.622                             : en:01:07:22.622
01:14:18.412                             : en:01:14:18.412
01:22:37.411                             : en:01:22:37.411
01:27:59.441                             : en:01:27:59.441
01:34:14.065                             : en:01:34:14.065
Світлини




Джерело:
Особиста оцінка: 0 - не дивився


>>> Усі мої релізи <<<



 Трекер:    Зареєстрований   

Завантажити / скачати фільм українською



відео для новачків



 Зареєстрований:   2018-12-24 12:07
 Розмір:   2.99 GB 
 Оцінка фільму:   10/10 (Голосів: 3)
   
hatak 
Свій


З нами з: 30.04.15
Востаннє: 20.08.19
Повідомлень: 95

2018-12-25 03:52  
Молодіжна романтична наївна комедія. Фільм про те що, якщо хлопець не дотягує до рівня дівчини за соціальним статусом, матеріальним достатком і виріс в придуркуватій сімейці — то в нього є шанс і все може бути, адже його будуть цінувати за щиру душу і гарні людські якості. Думаю правильно, що таке показують — треба щоб молоді люди (в основному тінейджери) вірили в це, а як стосунки влаштовані насправді вони потім самі якось дізнаються. Якщо відкинути епізоди із типовим американським гумором про плями на штанях, чоловічу інтимну епіляцію та ще масу незручних моментів — фільм піднімає філософське питання: “де межа нерівності, яку ще можна компенсувати, а де прірва яку вже не подолати?”
P.S. Тут Alice Eve ще молода і красива, а T.J.Miller значно стрункіший, ніж в Кремнієвій Долині.

Ваш часовий пояс: GMT + 2 Години

Нова тема   Відповісти