Джеймс Бонд. Агент 007: Голдфінгер / James Bond: Goldfinger (1964) Remux 1080p 2хUkr/Eng | Sub Ukr/Eng

Нові коментарі

Нова тема   Відповісти
Автор Повідомлення
MakRA 
VIP


З нами з: 11.11.18
Востаннє: 25.09.20
Повідомлень: 1120

2018-12-23 19:28  
Джеймс Бонд. Агент 007: Голдфінгер / James Bond: Goldfinger (1964) Remux 1080p 2хUkr/Eng | Sub Ukr/Eng

Джеймс Бонд. Агент 007: Голдфінгер / James Bond: Goldfinger (1964) Remux 1080p 2хUkr/Eng | Sub Ukr/Eng


Жанр: бойовик, екшн, пригодницький, трилер
Країна: США, Великобританія



Кінокомпанія: EON Productions
Режисер: Гай Хемільтон [Guy Hamilton]
Актори: Шон Коннері [Sir Thomas Sean Connery], Хонор Блекмен [Honor Blackman], Сек Ліндер [Cec Linder], Герт Фрьобе [Karl Gerhart Fröbe], Ширлі Ітон [Shirley Eaton], Таня Мале [Tania Mallet], Ґарольд Саката [Harold Sakata], Бернард Лі [Bernard Lee], Лоїс Максвелл [Lois Maxwell], Десмонд Ллевелін [Desmond Wilkinson Llewelyn]

Сюжет:
Третій фільм з циклу про британського суперагента Джеймса Бонда та екранізація однойменної новели Яна Флемінга.

В цій картині Бонд вступає в сутичку з хитрим злодієм Годфінгером, який збирається влаштувати вибух бомби в Фортi Нокс - скарбниці США, де зберігаються всі запаси золота, щоб внести хаос в економіку, а самому стати володарем світу ..

Це єдиний фільм бондіани з Коннері, де немає організації СПЕКТР.


Тривалість: 01:50:01
Якість: Remux 1080p
Відео:
кодек:
розмір кадру: 1920 x 1080
бітрейт: 32.9 Mb/s

Аудіо # 1:
мова: українська
переклад: багатоголосий закадровий "1+1"
кодек: 2.0
бітрейт: 256 кбіт/с

Аудіо # 2:
мова: українська
переклад: багатоголосий закадровий "Так Треба Продакшн"
кодек: 5.1
бітрейт: 384 кбіт/с

Аудіо # 3:
мова: англійська
переклад: оригінал
кодек: 5.1
бітрейт: 384 kb/s

Аудіо # 4:
переклад: оригінал
кодек: -HD MA 5.1
бітрейт: 3 018 kb/s

Джерело озвучення 1:
"1+1"

Джерело озвучення 2:
"Так Треба Продакшн"

Субтитри:
мова: українська
тип: пререндерні
формат: *.pgs

Субтитри:
мова: англійська
тип: пререндерні
формат: *.pgs
Info
General
Unique ID : 244702280070046795784513994550195795514 (0xB817F1E2A6B7D829D8FB9B395008363A)
Complete name : E:\! Моя роздача\James Bond Goldfinger (1964) Remux 1080p UkrEng Sub UkrEng.
Format :
Format version : Version 4 / Version 2
File size : 25.5 GiB
Duration : 1 h 50 min
Overall bit rate mode : Variable
Overall bit rate : 33.1 Mb/s
Encoded date : UTC 2018-12-26 09:46:22
Writing application : v25.0.0 ('Prog Noir') 64-bit
Writing library : libebml v1.3.6 + v1.4.9

Video
ID : 1
Format : AVC
Format/Info : Advanced Video Codec
Format profile : [email protected]
Format settings, CABAC : Yes
Format settings, RefFrames : 4 frames
Codec ID : V_MPEG4/ISO/AVC
Duration : 1 h 50 min
Bit rate mode : Variable
Bit rate : 29.2 Mb/s
Maximum bit rate : 35.6 Mb/s
Width : 1 920 pixels
Height : 1 080 pixels
Display aspect ratio : 16:9
Frame rate mode : Constant
Frame rate : 23.976 (24000/1001) FPS
Color space : YUV
Chroma subsampling : 4:2:0
Bit depth : 8 bits
Scan type : Progressive
Bits/(Pixel*Frame) : 0.588
Stream size : 22.5 GiB (88%)
Title : James Bond: Goldfinger (1964) Remux 1080p 2хUkr/Eng | Sub Ukr/Eng
Language : Ukrainian
Default : Yes
Forced : Yes
Color range : Limited
Color primaries : BT.709
Transfer characteristics : BT.709
Matrix coefficients : BT.709

Audio #1
ID : 2
Format : AC-3
Format/Info : Audio Coding 3
Format settings, Endianness : Big
Codec ID : A_AC3
Duration : 1 h 50 min
Bit rate mode : Constant
Bit rate : 256 kb/s
Channel(s) : 2 channels
Channel positions : Front: L R
Sampling rate : 48.0 kHz
Frame rate : 31.250 FPS (1536 SPF)
Bit depth : 16 bits
Compression mode : Lossy
Stream size : 201 MiB (1%)
Title : MVO ["1+1"]
Language : Ukrainian
Service kind : Complete Main
Default : Yes
Forced : Yes

Audio #2
ID : 3
Format : AC-3
Format/Info : Audio Coding 3
Format settings, Endianness : Big
Codec ID : A_AC3
Duration : 1 h 50 min
Bit rate mode : Constant
Bit rate : 384 kb/s
Channel(s) : 6 channels
Channel positions : Front: L C R, Side: L R, LFE
Sampling rate : 48.0 kHz
Frame rate : 31.250 FPS (1536 SPF)
Bit depth : 16 bits
Compression mode : Lossy
Delay relative to video : 1 s 0 ms
Stream size : 302 MiB (1%)
Title : MVO ["Так Треба Продакшн"]
Language : Ukrainian
Service kind : Complete Main
Default : No
Forced : No

Audio #3
ID : 4
Format : AC-3
Format/Info : Audio Coding 3
Format settings, Endianness : Big
Codec ID : A_AC3
Duration : 1 h 50 min
Bit rate mode : Constant
Bit rate : 224 kb/s
Channel(s) : 2 channels
Channel positions : Front: L R
Sampling rate : 48.0 kHz
Frame rate : 31.250 FPS (1536 SPF)
Bit depth : 16 bits
Compression mode : Lossy
Stream size : 176 MiB (1%)
Title : Original
Language : English
Service kind : Complete Main
Default : No
Forced : No

Audio #4
ID : 5
Format :
Format/Info : Digital Theater Systems
Format profile : HRA / Core
Mode : 16
Format settings, Endianness : Big
Codec ID : A_DTS
Duration : 1 h 50 min
Bit rate mode : Constant
Bit rate : 3 018 kb/s / 1 509 kb/s
Channel(s) : 6 channels
Channel positions : Front: L C R, Side: L R, LFE
Sampling rate : 48.0 kHz
Frame rate : 93.750 FPS (512 SPF)
Bit depth : 24 bits
Compression mode : Lossy
Stream size : 2.32 GiB (9%)
Title : Original
Language : English
Default : No
Forced : No

Text #1
ID : 6
Format : PGS
Muxing mode : zlib
Codec ID : S_HDMV/PGS
Codec ID/Info : Picture based subtitle format used on BDs/HD-DVDs
Duration : 1 h 45 min
Bit rate : 19.5 kb/s
Count of elements : 1268
Stream size : 14.7 MiB (0%)
Title : Ukr
Language : Ukrainian
Default : Yes
Forced : Yes

Text #2
ID : 7
Format : PGS
Muxing mode : zlib
Codec ID : S_HDMV/PGS
Codec ID/Info : Picture based subtitle format used on BDs/HD-DVDs
Duration : 1 h 45 min
Bit rate : 25.4 kb/s
Count of elements : 1867
Stream size : 19.2 MiB (0%)
Title : Eng
Language : English
Default : No
Forced : No
Скріншоти
Джерело: &
Особиста оцінка: 10 - без зайвих вагань рекомендую всім!


Золотий реліз (завантажене не впливає на рейтинг)
 Трекер:    Зареєстрований   

Завантажити / скачати фільм українською



відео для новачків



 Зареєстрований:   2018-12-26 14:28
 Розмір:   25.46 GB 
 Оцінка фільму:   9.8/10 (Голосів: 6)
   
11FrYkT 
Модератор відео


З нами з: 20.02.11
Востаннє: 25.09.20
Повідомлень: 7004

2018-12-25 11:16  
MakRA , чому не додано озвучення з 1+1?
MakRA 
VIP


З нами з: 11.11.18
Востаннє: 25.09.20
Повідомлень: 1120

2018-12-26 14:35  
Роздача оновлена. Додано доріжку від "1+1"
Ваш часовий пояс: GMT + 2 Години

Нова тема   Відповісти