Хижі води / Black Water (2007) 720p Ukr/Eng | sub Eng

Нові коментарі

Нова тема   Відповісти
Автор Повідомлення
Anonymous 







2018-12-23 18:19  
Хижі води / Black Water (2007) 720p Ukr/Eng | sub Eng

Хижі води / Black Water (2007) 720p Ukr/Eng | sub Eng


Жанр: трилер, драма, жахи
Країна: Австралія



Кінокомпанія: Australian Film Commission
Режисер: Девід Нірліч, Ендрю Траукі
Актори: Діана Гленн, Мейв Дермоді, Енді Родорідо, Бен Оксенбоулд, Фіона Прісс

Сюжет:
Грейс, Адам і Лі вирішують провести вихідні на риболовлі на мальовничій річці, серед непрохідних джунглів. На місці вони винаймають провідника - кращого знавця місцевості.
Чудова погода, неперевершені місця, гарний улов - все вказує на те, що подорож буде легкою та цікавою. Але навіть такий досвідчений професіонал, як їхній провідник, не підозрює, яка небезпека прихована в тихій і на вигляд безпечній воді...


Тривалість: 01:29:18
Якість: 720p
Відео:
кодек:
розмір кадру: 1280 х 718
бітрейт: 4020 кб/с

Аудіо # 1:
мова: українська
переклад: двоголосий закадровий
кодек: 2.0
бітрейт: 192 кб/с

Аудіо # 2:
мова: англійська
переклад: оригінал
кодек: 5.1
бітрейт: 384 кб/с

Субтитри:
мова: англійська
тип: програмні (м'які)
формат: *.srt
Info
General
Unique ID : 17578516986899869172112409623141961383 (0xD397FCD29E5A2DA2AB1373508064EA7)
Complete name : G:\HD Films\Black Water (2007) 720p [ukr.eng] Hurtom.
Format :
Format version : Version 4 / Version 2
File size : 2.87 GiB
Duration : 1 h 29 min
Overall bit rate : 4 598 kb/s
Encoded date : UTC 2018-12-23 15:05:12
Writing application : v29.0.0 ('Like It Or Not') 64-bit
Writing library : libebml v1.3.6 + v1.4.9

Video
ID : 1
Format : AVC
Format/Info : Advanced Video Codec
Format profile : [email protected]
Format settings : 2 Ref Frames
Format settings, CABAC : No
Format settings, ReFrames : 2 frames
Codec ID : V_MPEG4/ISO/AVC
Duration : 1 h 29 min
Bit rate : 4 020 kb/s
Width : 1 280 pixels
Height : 718 pixels
Display aspect ratio : 16:9
Frame rate mode : Constant
Frame rate : 23.976 (23976/1000) FPS
Color space : YUV
Chroma subsampling : 4:2:0
Bit depth : 8 bits
Scan type : Progressive
Bits/(Pixel*Frame) : 0.182
Stream size : 2.51 GiB (87%)
Default : Yes
Forced : No
Color range : Limited
Color primaries : BT.709
Transfer characteristics : BT.709
Matrix coefficients : BT.709

Audio #1
ID : 2
Format : AC-3
Format/Info : Audio Coding 3
Commercial name : Dolby Digital
Codec ID : A_AC3
Duration : 1 h 29 min
Bit rate mode : Constant
Bit rate : 192 kb/s
Channel(s) : 2 channels
Channel positions : Front: L R
Sampling rate : 48.0 kHz
Frame rate : 31.250 FPS (1536 SPF)
Bit depth : 16 bits
Compression mode : Lossy
Stream size : 123 MiB (4%)
Title : ukr
Language : Ukrainian
Service kind : Complete Main
Default : Yes
Forced : No

Audio #2
ID : 3
Format : AC-3
Format/Info : Audio Coding 3
Commercial name : Dolby Digital
Codec ID : A_AC3
Duration : 1 h 29 min
Bit rate mode : Constant
Bit rate : 384 kb/s
Channel(s) : 6 channels
Channel positions : Front: L C R, Side: L R, LFE
Sampling rate : 48.0 kHz
Frame rate : 31.250 FPS (1536 SPF)
Bit depth : 16 bits
Compression mode : Lossy
Stream size : 245 MiB (8%)
Title : original
Language : English
Service kind : Complete Main
Default : No
Forced : No

Text
ID : 4
Format : UTF-8
Codec ID : S_TEXT/UTF8
Codec ID/Info : UTF-8 Plain Text
Duration : 1 h 24 min
Bit rate : 30 b/s
Count of elements : 843
Stream size : 18.7 KiB (0%)
Title : subtitle eng
Language : English
Default : No
Forced : No
Скріншоти






Подяка dvorsky за україномовну звукову доріжку, Воїну за українізований постер.

Джерело: &


 Трекер:    Зареєстрований   

Завантажити / скачати фільм українською



відео для новачків



 Зареєстрований:   2018-12-23 18:21
 Розмір:   2.87 GB 
 Оцінка фільму:   7.6/10 (Голосів: 7)
   
Інші релізи
   Хижі води / Black Water (2007) Givi  2 / 0   1.27 GB   2009-06-27 23:03 
vitalikfv 
Новенький


З нами з: 29.12.13
Востаннє: 07.04.19
Повідомлень: 18

2018-12-26 02:42  
Не раджу нікому, навіть час свій не витрачайте... Просто жах... такого лайна в принципі ніколи ще не бачив.
casper101 
VIP


З нами з: 03.12.09
Востаннє: 22.04.19
Повідомлень: 393

2019-02-17 15:36  
Чорні води
Ваш часовий пояс: GMT + 2 Години

Нова тема   Відповісти