Хелловін / Halloween (2018) 1080p Ukr/Eng | Sub Eng

Нові коментарі

Нова тема   Відповісти
Автор Повідомлення
staf777 
Попереджень: 1
Попереджень: 1 


З нами з: 16.11.16
Востаннє: 21.02.19
Повідомлень: 2152

2018-12-23 09:13  
Хелловін / Halloween (2018) 1080p Ukr/Eng | Sub Eng

Хелловін / Halloween (2018) 1080p Ukr/Eng | Sub Eng


Жанр: жахи, трилер
Країна: США



Кінокомпанія: Blumhouse Productions, Miramax, Night Blade Holdings
Режисер: Девід Гордон Грін
Актори: Джемі Лі Кертіс, Джуді Грір, Енді Метічак, Джеймс Джуд Кортні, Нік Касл, Халук Больгінер, Вілл Петтон

Сюжет:
Лорі Строуд сходиться в фінальному протистоянні з маніяком-вбивцею Майклом Майерсом, який переслідує її з тих пір, як вона вижила під час його кривавого бенкету в ніч Гелловіна чотири десятиліття тому.


Тривалість:
Якість: 1080p
Відео:
кодек:
розмір кадру: 1920x804
бітрейт: 12,3 Mб/с

Аудіо # 1:
мова: українська
переклад: професійний дубльований
кодек: 2.0 (стерео)
бітрейт: 192 кб/с

Аудіо # 2:
мова: англійська
переклад: оригінал
кодек: 5.1
бітрейт: 1509 кб/с

Субтитри:
мова: англійська
тип: програмні (м'які)
формат: *.srt
Info
General
Unique ID : 93728859002321242730507641877528705195 (0x46838588ED2C72AC8318B7A64E9DF8AB)
Complete name : S:\» HD українською » Фільми в HD\Жахи\Halloween (2018) 1080p [UKR][ENG][Hurtom].
Format :
Format version : Version 4
File size : 10.3 GiB
Duration : 1 h 45 min
Overall bit rate : 14.0 Mb/s
Movie name : Halloween (2018) 1080p [UKR][ENG][Hurtom]
Encoded date : UTC 2019-02-18 12:07:27
Writing application : v30.1.0 ('Forever And More') 64-bit
Writing library : libebml v1.3.6 + v1.4.9
Cover : Yes
Attachments : cover.jpg

Video
ID : 1
Format : AVC
Format/Info : Advanced Video Codec
Format profile : [email protected]
Format settings : CABAC / 5 Ref Frames
Format settings, CABAC : Yes
Format settings, ReFrames : 5 frames
Codec ID : V_MPEG4/ISO/AVC
Duration : 1 h 45 min
Bit rate : 12.3 Mb/s
Width : 1 920 pixels
Height : 804 pixels
Display aspect ratio : 2.40:1
Frame rate mode : Constant
Frame rate : 23.976 (24000/1001) FPS
Color space : YUV
Chroma subsampling : 4:2:0
Bit depth : 8 bits
Scan type : Progressive
Bits/(Pixel*Frame) : 0.332
Stream size : 9.08 GiB (88%)
Title : CHD
Writing library : core 155 r2893 b00bcaf
Encoding settings : cabac=1 / ref=5 / deblock=1:-3:-3 / analyse=0x3:0x113 / me=umh / subme=10 / psy=1 / psy_rd=1.00:0.05 / mixed_ref=1 / me_range=48 / chroma_me=1 / trellis=2 / 8x8dct=1 / cqm=0 / deadzone=21,11 / fast_pskip=0 / chroma_qp_offset=-2 / threads=18 / lookahead_threads=3 / sliced_threads=0 / nr=0 / decimate=1 / interlaced=0 / bluray_compat=0 / constrained_intra=0 / bframes=8 / b_pyramid=2 / b_adapt=2 / b_bias=0 / direct=3 / weightb=1 / open_gop=0 / weightp=2 / keyint=250 / keyint_min=23 / scenecut=40 / intra_refresh=0 / rc_lookahead=40 / rc=crf / mbtree=0 / crf=18.0 / qcomp=0.60 / qpmin=0 / qpmax=69 / qpstep=4 / vbv_maxrate=50000 / vbv_bufsize=45000 / crf_max=0.0 / nal_hrd=none / filler=0 / ip_ratio=1.40 / pb_ratio=1.30 / aq=3:1.00
Language : English
Default : Yes
Forced : No
Color range : Limited
Matrix coefficients : BT.709

Audio #1
ID : 2
Format : AC-3
Format/Info : Audio Coding 3
Commercial name : Dolby Digital
Codec ID : A_AC3
Duration : 1 h 45 min
Bit rate mode : Constant
Bit rate : 192 kb/s
Channel(s) : 2 channels
Channel layout : L R
Sampling rate : 48.0 kHz
Frame rate : 31.250 FPS (1536 SPF)
Bit depth : 16 bits
Compression mode : Lossy
Stream size : 145 MiB (1%)
Language : Ukrainian
Service kind : Complete Main
Default : Yes
Forced : Yes

Audio #2
ID : 3
Format :
Format/Info : Digital Theater Systems
Codec ID : A_DTS
Duration : 1 h 45 min
Bit rate mode : Constant
Bit rate : 1 509 kb/s
Channel(s) : 6 channels
Channel layout : C L R Ls Rs LFE
Sampling rate : 48.0 kHz
Frame rate : 93.750 FPS (512 SPF)
Bit depth : 24 bits
Compression mode : Lossy
Stream size : 1.12 GiB (11%)
Title : Original
Language : English
Default : No
Forced : No

Text
ID : 4
Format : UTF-8
Codec ID : S_TEXT/UTF8
Codec ID/Info : UTF-8 Plain Text
Duration : 1 h 38 min
Bit rate : 54 b/s
Count of elements : 1181
Stream size : 39.4 KiB (0%)
Title : Full
Language : English
Default : No
Forced : No

Menu
00:00:00.000 : en:00:00:00.000
00:08:42.522 : en:00:08:42.522
00:14:26.949 : en:00:14:26.949
00:20:46.996 : en:00:20:46.996
00:23:17.855 : en:00:23:17.855
00:27:45.080 : en:00:27:45.080
00:32:55.724 : en:00:32:55.724
00:40:51.366 : en:00:40:51.366
00:44:41.053 : en:00:44:41.053
00:48:26.403 : en:00:48:26.403
00:53:26.453 : en:00:53:26.453
00:59:18.597 : en:00:59:18.597
01:03:22.340 : en:01:03:22.340
01:07:29.629 : en:01:07:29.629
01:14:46.524 : en:01:14:46.524
01:18:10.561 : en:01:18:10.561
01:22:04.837 : en:01:22:04.837
01:30:09.904 : en:01:30:09.904
01:35:33.394 : en:01:35:33.394
01:40:41.494 : en:01:40:41.494






Джерело: & &
Особиста оцінка: 8 - мені сподобалося
Хелловін / Halloween (2018) 1080p Ukr/Eng | Sub Eng Хелловін / Halloween (2018) 1080p Ukr/Eng | Sub Eng


Золотий реліз (завантажене не впливає на рейтинг)
 Трекер:    Зареєстрований   

Завантажити / скачати фільм українською



відео для новачків



 Зареєстрований:   2019-02-18 15:31
 Розмір:   10.34 GB 
 Оцінка фільму:   7.8/10 (Голосів: 24)
   
Інші релізи
-Star-Lord- 
VIP


З нами з: 09.08.18
Востаннє: 22.02.19
Повідомлень: 618

2018-12-23 12:09  
Доріжка "лайн"?
igor911 
Відео Гуртом
Відео Гуртом


З нами з: 18.01.08
Востаннє: 22.02.19
Повідомлень: 12066

2018-12-23 12:43  
-Star-Lord- написано:
Доріжка "лайн"?

ні, ліцензійна

nazar.e30 
Новенький


З нами з: 09.01.11
Востаннє: 22.02.19
Повідомлень: 8

2018-12-23 19:38  
Класний фільм!
vovang6 
Поважний учасник


З нами з: 27.08.12
Востаннє: 22.02.19
Повідомлень: 178

2018-12-28 10:34  
Подивились з дружиною, посмiялись вiд душi. Не розумiю чому така висока оцiнка)
rubyrud1 
Новенький


З нами з: 24.04.18
Востаннє: 22.02.19
Повідомлень: 15

2018-12-28 22:19  
Для фанів франшизи це повне ЛАЙНО а не фільм. Творці вирішили зробити продоження до 1го фільму проігнорувавши решту 7. Це навіть не продовження ремейку 2007 року з 2 частин (який вийшов дуже крутим розкриваючи божевілля маньяка)
Так ось - це гівно для зрізу бабла - це просто фанфік де головна героїня полює на маньяка

O_omarella! 
Свій


З нами з: 14.06.13
Востаннє: 17.02.19
Повідомлень: 105

2019-01-02 21:27  
Нічого особливого, не раджу.
staf777 
Попереджень: 1
Попереджень: 1 


З нами з: 16.11.16
Востаннє: 21.02.19
Повідомлень: 2152

2019-02-18 15:31  
Оновив до 1080p
Ваш часовий пояс: GMT + 2 Години

Нова тема   Відповісти