Джеймс Бонд. Агент 007: Із Росії з любов'ю / James Bond: From Russia with Love (1963) Remux 1080p 2xUkr/Eng | Sub Ukr/Eng

Нові коментарі

Нова тема   Відповісти
Автор Повідомлення
MakRA 
Поважний учасник


З нами з: 11.11.18
Востаннє: 25.05.19
Повідомлень: 205

2018-12-22 23:30  
Джеймс Бонд. Агент 007: Із Росії з любов'ю / James Bond: From Russia with Love (1963) Remux 1080p 2xUkr/Eng | Sub Ukr/Eng

Джеймс Бонд. Агент 007: Із Росії з любов'ю / James Bond: From Russia with Love (1963) Remux 1080p 2xUkr/Eng | Sub Ukr/Eng
Альтернативний постер:



Жанр: бойовик, екшн, пригодницький, трилер
Країна: США, Велика Британія



Кінокомпанія: EON Productions, Danjaq
Режисер: Теренс Янг [Terence Young]
Актори: Шон Коннері [Sir Thomas Sean Connery], Даніела Біанчі [Daniela Bianchi], Роберт Шоу [Robert Shaw], Лотте Лен'я [Lotte Lenya], Бернард Лі [Bernard Lee], Владек Шейбал [Vladek Sheybal], Десмонд Ллевелін [Desmond Wilkinson Llewelyn], Педро Армендаріс [Pedro Armendáriz], Волтер Готелл [Walter Gotell], Френсіс Де Фолфф [Francis De Wolff].

Сюжет:
Другий фільм про англійського суперагента Джеймса Бонда та екранізація однойменної новели Яна Флемінга, що вже став всесвітньо визнаною класикою шпигунських бойовиків.

Джеймс Бонд повинен переправити до Великобританії російського агента, що знаходиться в Стамбулі. Агент - чарівна дівчина, яка знає ключ до шифрувального апарату «Лектор». Спочатку операція проходить легко, але потім Бонд стикається з агентом терористичної організації Ернестом Ставро Блофелдом.

Блофелд прагне знищити Бонда і створити вкрай напружену ситуацію між Радянським Союзом і Великобританією, захопити радянський шифрувальний пристрій «Лектор» і вбити агента англійської розвідки МІ-6 Джеймса Бонда (як помста за вбивство Доктора Но)

Саме з цієї частини культової франшизи було запроваджено традицію, за якою кожний фільм про Джеймса Бонда закінчується назвою наступного (аж до фільму "Вид на вбивство" 1985 року)


Тривалість: 01:55:12
Якість: Remux 1080p
Відео:
кодек:
розмір кадру: 1920 x 1080
бітрейт: 26,5 Мб/с

Аудіо # 1:
мова: українська
переклад: багатоголосий закадровий | 1+1
кодек: 2.0
бітрейт: 256 кб/с

Аудіо # 2:
мова: українська
переклад: багатоголосий закадровий | Інтер
кодек: 2.0
бітрейт: 256 кб/с

Аудіо # 3:
мова: англійська
переклад: оригінал
кодек: 2.0
бітрейт: 224 кб/с

Аудіо # 4:
мова: англійська
переклад: оригінал
кодек: -HD MA 5.1
бітрейт: 3840 kb/s

Субтитри # 1:
мова: українська
тип: пререндерні
формат: *.pgs

Субтитри # 2:
мова: англійська
тип: пререндерні
формат: *.pgs
Info
General
Unique ID : 263642380853120854870160874944506900845 (0xC657ACF36E3F1FAC42855E17E830316D)
Complete name : E:\! Моя роздача\James Bond From Russia with Love (1963) Remux 1080p 2xUkrEng Sub UkrEng.
Format :
Format version : Version 4 / Version 2
File size : 25.0 GiB
Duration : 1 h 55 min
Overall bit rate mode : Variable
Overall bit rate : 31.1 Mb/s
Encoded date : UTC 2018-12-22 12:42:20
Writing application : v25.0.0 ('Prog Noir') 64-bit
Writing library : libebml v1.3.6 + v1.4.9

Video
ID : 1
Format : AVC
Format/Info : Advanced Video Codec
Format profile : [email protected]
Format settings, CABAC : Yes
Format settings, RefFrames : 4 frames
Codec ID : V_MPEG4/ISO/AVC
Duration : 1 h 55 min
Bit rate mode : Variable
Bit rate : 26.5 Mb/s
Maximum bit rate : 36.5 Mb/s
Width : 1 920 pixels
Height : 1 080 pixels
Display aspect ratio : 16:9
Frame rate mode : Constant
Frame rate : 23.976 (24000/1001) FPS
Color space : YUV
Chroma subsampling : 4:2:0
Bit depth : 8 bits
Scan type : Progressive
Bits/(Pixel*Frame) : 0.534
Stream size : 21.3 GiB (85%)
Title : James Bond: From Russia with Love (1963) Remux 1080p 2xUkr/Eng | Sub Ukr/Eng
Language : Ukrainian
Default : Yes
Forced : Yes
Color range : Limited
Color primaries : BT.709
Transfer characteristics : BT.709
Matrix coefficients : BT.709

Audio #1
ID : 2
Format : AC-3
Format/Info : Audio Coding 3
Format settings, Endianness : Big
Codec ID : A_AC3
Duration : 1 h 55 min
Bit rate mode : Constant
Bit rate : 256 kb/s
Channel(s) : 2 channels
Channel positions : Front: L R
Sampling rate : 48.0 kHz
Frame rate : 31.250 FPS (1536 SPF)
Bit depth : 16 bits
Compression mode : Lossy
Stream size : 211 MiB (1%)
Title : MVO [1+1]
Language : Ukrainian
Service kind : Complete Main
Default : Yes
Forced : Yes

Audio #2
ID : 3
Format : AC-3
Format/Info : Audio Coding 3
Format settings, Endianness : Big
Codec ID : A_AC3
Duration : 1 h 54 min
Bit rate mode : Constant
Bit rate : 256 kb/s
Channel(s) : 2 channels
Channel positions : Front: L R
Sampling rate : 48.0 kHz
Frame rate : 31.250 FPS (1536 SPF)
Bit depth : 16 bits
Compression mode : Lossy
Stream size : 211 MiB (1%)
Title : MVO [Inter]
Language : Ukrainian
Service kind : Complete Main
Default : No
Forced : No

Audio #3
ID : 4
Format : AC-3
Format/Info : Audio Coding 3
Format settings, Endianness : Big
Codec ID : A_AC3
Duration : 1 h 55 min
Bit rate mode : Constant
Bit rate : 224 kb/s
Channel(s) : 2 channels
Channel positions : Front: L R
Sampling rate : 48.0 kHz
Frame rate : 31.250 FPS (1536 SPF)
Bit depth : 16 bits
Compression mode : Lossy
Stream size : 185 MiB (1%)
Title : Original
Language : English
Service kind : Complete Main
Default : No
Forced : No

Audio #4
ID : 5
Format :
Format/Info : Digital Theater Systems
Format profile : MA / Core
Mode : 16
Format settings, Endianness : Big
Codec ID : A_DTS
Duration : 1 h 55 min
Bit rate mode : Variable / Constant
Bit rate : 3 840 kb/s / 1 509 kb/s
Channel(s) : 6 channels
Channel positions : Front: L C R, Side: L R, LFE
Sampling rate : 48.0 kHz
Frame rate : 93.750 FPS (512 SPF)
Bit depth : 24 bits
Compression mode : Lossless / Lossy
Stream size : 3.06 GiB (12%)
Title : Original
Language : English
Default : No
Forced : No

Text #1
ID : 6
Format : PGS
Muxing mode : zlib
Codec ID : S_HDMV/PGS
Codec ID/Info : Picture based subtitle format used on BDs/HD-DVDs
Duration : 1 h 50 min
Bit rate : 23.8 kb/s
Count of elements : 1862
Stream size : 18.8 MiB (0%)
Title : Ukr
Language : Ukrainian
Default : Yes
Forced : No

Text #2
ID : 7
Format : PGS
Muxing mode : zlib
Codec ID : S_HDMV/PGS
Codec ID/Info : Picture based subtitle format used on BDs/HD-DVDs
Duration : 1 h 50 min
Bit rate : 26.2 kb/s
Count of elements : 1928
Stream size : 20.7 MiB (0%)
Title : Eng
Language : English
Default : No
Forced : No
Скріншоти
Джерело: &
Особиста оцінка: 10 - без зайвих вагань рекомендую всім!



Золотий реліз (завантажене не впливає на рейтинг)
 Трекер:    Зареєстрований   

Завантажити / скачати фільм українською



відео для новачків



 Зареєстрований:   2018-12-22 23:30
 Розмір:   25.01 GB 
 Оцінка фільму:   9.9/10 (Голосів: 7)
   
Ваш часовий пояс: GMT + 2 Години

Нова тема   Відповісти