Викрадення кумира / Be-Boy Kidnapp`n Idol [OVA][1989] 576p

Нові коментарі

Нова тема   Відповісти
Автор Повідомлення
Arch Enemy 
VIP


З нами з: 30.08.12
Востаннє: 19.08.19
Повідомлень: 1689

2018-12-22 21:35  
Викрадення кумира / Be-Boy Kidnapp`n Idol


Вікове обмеження: 16+

Жанр: романтика, драма, шьонен-aй.
Період трансляції: 22.02.1989
Країна: Японія

5.01 (181 голос)

Аніместудія: AIC
Режисер: Ятаґай Кенічі
Сейю: Кусао Такеші, Сасакі Нозому, Накамура Хідетоші, Ікеда Шуучі, Хаямі Шо та інші.

Опис: Найкращий учень школи Акіхіко - спортсмен, і Казуя - поп-зірка, що має явні ознаки зоряної хвороби. Казуя живе один, але нічого не вміє, тому Акіхіко приїжджає до нього, щоб приготувати вечерю.
І вдома і в школі Казуя поводиться як розпещений і задерикуватий підліток...

Тип: OVA
Кількість серій: 1 епізод
Тривалість:26:42 хв.

Відео:
якість:
контейнер:
кодек: H.265/HEVC
частота кадрів: 23.976 кадрів/сек.
розмір кадру: 768х576 пікс.
бітрейт: ~2700 кбіт/сек.

Аудіо:
мова: українська
озвучення: двоголосе закадрове
кодек: Vorbis
кількість каналів: 2.0
бітрейт: 256 кбіт/сек.
частота: 48000 Гц

Субтитри:
мова: українська (тільки лірика)
тип: програмні (м'які)
формат:

Джерело озвучення: AniUA

озвучення: Stayler та Artymko
переклад: Kohinsan
редакція: ION
робота зі звуком: Kohinsan

Джерело релізу:
Скріншоти

Info
General
Unique ID : 253393566549835384063799381022499951524 (0xBEA1D36492293767AAA9FE974AE853A4)
Complete name : E:\Anime\[AniUA]_BeBoy_Kidnapping_Idol_[Stayler_&_Artymko].
Format :
Format version : Version 4 / Version 2
File size : 546 MiB
Duration : 26 min 42 s
Overall bit rate mode : Variable
Overall bit rate : 2 861 kb/s
Encoded date : UTC 2018-12-16 17:11:58
Writing application : v13.0.0 ('The Juggler') 64bit
Writing library : libebml v1.3.4 + v1.4.5

Video
ID : 3
Format : HEVC
Format/Info : High Efficiency Video Coding
Format profile : Main [email protected]@Main
Codec ID : V_MPEGH/ISO/HEVC
Duration : 26 min 22 s
Bit rate : 2 686 kb/s
Width : 768 pixels
Height : 576 pixels
Display aspect ratio : 4:3
Frame rate mode : Constant
Frame rate : 23.976 (24000/1001) FPS
Color space : YUV
Chroma subsampling : 4:2:0
Bit depth : 10 bits
Bits/(Pixel*Frame) : 0.253
Stream size : 507 MiB (93%)
Writing library : x265 - H.265/HEVC codec
Language : Japanese
Default : No
Forced : No
Color range : Limited
Matrix coefficients : BT.601

Audio
ID : 1
Format : Vorbis
Format settings, Floor : 1
Codec ID : A_VORBIS
Duration : 26 min 42 s
Bit rate mode : Variable
Bit rate : 256 kb/s
Channel(s) : 2 channels
Sampling rate : 48.0 kHz
Frame rate : 71.756 FPS (669 SPF)
Compression mode : Lossy
Stream size : 39.4 MiB (7%)
Writing application : REAPER
Writing library : libVorbis (Everywhere) (20100325 (Everywhere))
Language : Ukrainian
Default : Yes
Forced : No

Text
ID : 2
Format :
Codec ID : S_TEXT/
Codec ID/Info : Advanced Sub Station Alpha
Duration : 13 min 27 s
Bit rate : 11 b/s
Count of elements : 14
Compression mode : Lossless
Stream size : 1.12 KiB (0%)
Language : Ukrainian
Default : Yes
Forced : No

Якщо вам подобаються наші релізи, і є бажання чимось допомогти проекту, то будемо раді, якщо ви підтримаєте нас фінансово. І, якщо хочете подякувати за якесь конкретне аніме, або форсувати процес озвучення, прохання вказати у коментарі до переказу.
Підтримати/подякувати «AniUA»
Також у нас можна замовити переклад або озвучення
.


Авторський реліз (завантажувати можна без реєстрації)
 Трекер:    Зареєстрований   

Завантажити / скачати аніме українською



відео для новачків



 Зареєстрований:   2018-12-22 21:35
 Розмір:   546 MB 
 Оцінка аніме:   5/10 (Голосів: 1)
   
Arch Enemy 
VIP


З нами з: 30.08.12
Востаннє: 19.08.19
Повідомлень: 1689

2018-12-22 21:37  
Ліпше не питайте шо воно таке (основний жанр я підкреслив), бо мої очі ледь не витікли і воно більше тягне на комедію, хоча для дівчат воно мабуть буде "божественне")))
Ліхтарник 
VIP


З нами з: 16.09.14
Востаннє: 21.08.19
Повідомлень: 1384

2018-12-22 22:22  
Дарма підкреслював, то не привертає увагу Happy
EvGaS 
Відео Гуртом - субтитрування
Відео Гуртом - субтитрування


З нами з: 27.02.12
Востаннє: 31.07.19
Повідомлень: 5674

2018-12-22 22:28  
Arch Enemy написано:
бо мої очі ледь не витікли

Ну хоч не втікли.

Якщо я це подивлюся, то мені щоб опісля нього відійти, доведеться дивитися Full Monty

Arch Enemy 
VIP


З нами з: 30.08.12
Востаннє: 19.08.19
Повідомлень: 1689

2018-12-22 22:43  
EvGaS написано:
Якщо я це подивлюся, то мені щоб опісля нього відійти, доведеться дивитися Full Monty

Ліпше >>> оце <<<, щоб нормалізувати карму, ну або на крайняк Blood: the Last Vampire, там Сая гарно "упирів" рубає)))

kohinsan 
Частий відвідувач


З нами з: 16.10.12
Востаннє: 11.08.19
Повідомлень: 30

2018-12-23 09:32  
Нормальне і гарне аніме)... В нас є цензор Медгай))
Ваш часовий пояс: GMT + 2 Години

Нова тема   Відповісти