Перерваний шлях / Broken Trail (2006) 720p Eng | Sub Ukr/Eng

Нові коментарі

Нова тема   Відповісти
Автор Повідомлення
Anonymous 







2018-12-22 20:15  
Перерваний шлях / Broken Trail (2006) 720p Eng | Sub Ukr/Eng

Перерваний шлях / Broken Trail (2006) 720p Eng | Sub Ukr/Eng


Жанр: вестерн
Країна: США, Канада



Кінокомпанія: American Movie Classics (AMC), Butcher's Run Films, One Upon a Time Films
Режисер: Волтер Гілл / Walter Hill
Актори: Роберт Дюваль / Robert Duvall, Томас Гейден Черч / Thomas Haden Church, Грета Скаккі / Greta Scacchi, Кріс Малкі / Chris Mulkey, Расті Швіммер / Rusty Schwimmer, Гвендолін Йео / Gwendoline Yeo, Скотт Купер / Scott Cooper, Валері Тян / Valerie Tian, Керолайн Чань / Caroline Chan, Олівія Чен / Olivia Cheng, Джейдін Вонг / Jadyn Wong, Дональд Фонг / Donald Fong, Джеймс Руссо / James Russo

Сюжет:
Америка, 1898 рік. Ковбої Прент Ріттер (Роберт Дюваль) та його племінник Том Харт (Томас Гейден Черч) - партнери. Вони переганяють табун коней через країну, і несподівано для себе, стають захистом і опорою для 5 китайських дівчат, яких збиралися продати в бордель. Ковбої намагаються піклуватися про дівчат, щоб ті змогли почати гідне нове життя, але по їхніх слідах вже женеться зграя бандитів, що мають власні плани на дівчат...


Вікова категорія: 14+

Тривалість: 01:32:52 + 01:31:15 (дві частини)
Якість: 720p
Відео:
кодек:
розмір кадру: 1280 х 720
бітрейт: 6098 - 6218 кб/с

Аудіо:
мова: англійська, китайська (мандаринська)
переклад: оригінал
кодек: 5.1
бітрейт: 640 кб/с

Субтитри # 1:
мова: українська
тип: програмні (м'які)
формат: *.srt
примітка 1: крім контейнера , українські субтитри також додано окремими файлами
примітка 2: походження субтитрів невідоме (імовірно DVD), взяті з релізу HDClub'у

Субтитри # 2:
мова: англійська
тип: програмні (м'які)
формат: *.srt

Збережено оригінальні розділи, як на Blu-ray
Info
Частина 1:
Код:

Complete name               : Broken Trail. Part 1 (2006) [Eng sub.Ukr,Eng] 720p [Hurtom].
Format                      :
Format version              : Version 4
File size                   : 4.37 GiB
Duration                    : 1 h 32 min
Overall bit rate            : 6 740 kb/s
Movie name                  : Перерваний шлях / Broken Trail (Part 1 of 2) (2006) [Eng sub.Ukr,Eng] 720p [Hurtom]
Encoded date                : UTC 2018-12-22 18:34:48
Writing application         : v29.0.0 ('Like It Or Not') 64-bit
Writing library             : libebml v1.3.6 + v1.4.9
Cover                       : Yes
Attachments                 : cover.jpg

Video
ID                          : 1
Format                      : AVC
Format/Info                 : Advanced Video Codec
Format profile              : [email protected]
Format settings             : CABAC / 5 Ref Frames
Format settings, CABAC      : Yes
Format settings, ReFrames   : 5 frames
Codec ID                    : V_MPEG4/ISO/AVC
Duration                    : 1 h 32 min
Bit rate                    : 6 098 kb/s
Width                       : 1 280 pixels
Height                      : 720 pixels
Display aspect ratio        : 16:9
Frame rate mode             : Constant
Frame rate                  : 23.976 FPS
Color space                 : YUV
Chroma subsampling          : 4:2:0
Bit depth                   : 8 bits
Scan type                   : Progressive
Bits/(Pixel*Frame)          : 0.276
Stream size                 : 3.96 GiB (90%)
Title                       : Перерваний шлях / Broken Trail (2006) Part 1 720p
Writing library             : core 59 r859M ce13bb6
Encoding settings           : cabac=1 / ref=5 / deblock=1:-1:-1 / analyse=0x3:0x133 / me=umh / subme=6 / me-prepass=0 / brdo=1 / mixed_ref=1 / me_range=16 / chroma_me=1 / trellis=1 / 8x8dct=1 / cqm=1 / deadzone=21,11 / chroma_qp_offset=0 / threads=8 / nr=0 / decimate=1 / mbaff=0 / fgo=0 / bframes=3 / b_pyramid=1 / b_adapt=1 / b_bias=0 / direct=3 / wpredb=1 / bime=1 / keyint=240 / keyint_min=24 / scenecut=40(pre) / rc=2pass / bitrate=6098 / ratetol=1.0 / rceq='blurCplx^(1-qComp)' / qcomp=1.00 / qpmin=10 / qpmax=51 / qpstep=4 / cplxblur=20.0 / qblur=0.5 / ip_ratio=1.40 / pb_ratio=1.30 / aq=2:1.00
Language                    : English
Default                     : Yes
Forced                      : No

Audio
ID                          : 2
Format                      : AC-3
Format/Info                 : Audio Coding 3
Commercial name             : Dolby Digital
Codec ID                    : A_AC3
Duration                    : 1 h 32 min
Bit rate mode               : Constant
Bit rate                    : 640 kb/s
Channel(s)                  : 6 channels
Channel layout              : L R C LFE Ls Rs
Sampling rate               : 48.0 kHz
Frame rate                  : 31.250 FPS (1536 SPF)
Bit depth                   : 16 bits
Compression mode            : Lossy
Stream size                 : 425 MiB (9%)
Language                    : English
Service kind                : Complete Main
Default                     : Yes
Forced                      : No

Text #1
ID                          : 3
Format                      : UTF-8
Codec ID                    : S_TEXT/UTF8
Codec ID/Info               : UTF-8 Plain Text
Duration                    : 1 h 31 min
Bit rate                    : 65 b/s
Count of elements           : 909
Stream size                 : 44.1 KiB (0%)
Title                       : Ukr full
Language                    : Ukrainian
Default                     : Yes
Forced                      : Yes

Text #2
ID                          : 4
Format                      : UTF-8
Codec ID                    : S_TEXT/UTF8
Codec ID/Info               : UTF-8 Plain Text
Duration                    : 1 h 30 min
Bit rate                    : 38 b/s
Count of elements           : 884
Stream size                 : 25.3 KiB (0%)
Title                       : Eng full
Language                    : English
Default                     : No
Forced                      : No

Menu
00:00:00.000                : :Chapter 1
00:00:21.730                : :Chapter 2
00:04:05.162                : :Chapter 3
00:17:57.493                : :Chapter 4
00:32:37.581                : :Chapter 5
00:42:57.658                : :Chapter 6
00:51:31.088                : :Chapter 7
00:59:28.398                : :Chapter 8
01:10:49.078                : :Chapter 9
01:18:25.701                : :Chapter 10


Частина 2:
Код:

Complete name               : Broken Trail. Part 2 (2006) [Eng sub.Ukr,Eng] 720p [Hurtom].
Format                      :
Format version              : Version 4
File size                   : 4.37 GiB
Duration                    : 1 h 31 min
Overall bit rate            : 6 860 kb/s
Movie name                  : Перерваний шлях / Broken Trail (Part 2 of 2) (2006) [Eng sub.Ukr,Eng] 720p [Hurtom]
Encoded date                : UTC 2018-12-22 18:46:41
Writing application         : v29.0.0 ('Like It Or Not') 64-bit
Writing library             : libebml v1.3.6 + v1.4.9
Cover                       : Yes
Attachments                 : cover.jpg

Video
ID                          : 1
Format                      : AVC
Format/Info                 : Advanced Video Codec
Format profile              : [email protected]
Format settings             : CABAC / 5 Ref Frames
Format settings, CABAC      : Yes
Format settings, ReFrames   : 5 frames
Codec ID                    : V_MPEG4/ISO/AVC
Duration                    : 1 h 31 min
Bit rate                    : 6 218 kb/s
Width                       : 1 280 pixels
Height                      : 720 pixels
Display aspect ratio        : 16:9
Frame rate mode             : Constant
Frame rate                  : 23.976 FPS
Color space                 : YUV
Chroma subsampling          : 4:2:0
Bit depth                   : 8 bits
Scan type                   : Progressive
Bits/(Pixel*Frame)          : 0.281
Stream size                 : 3.88 GiB (89%)
Title                       : Перерваний шлях / Broken Trail (2006) Part 2 720p
Writing library             : core 59 r859M ce13bb6
Encoding settings           : cabac=1 / ref=5 / deblock=1:-1:-1 / analyse=0x3:0x133 / me=umh / subme=6 / me-prepass=0 / brdo=1 / mixed_ref=1 / me_range=16 / chroma_me=1 / trellis=1 / 8x8dct=1 / cqm=1 / deadzone=21,11 / chroma_qp_offset=0 / threads=8 / nr=0 / decimate=1 / mbaff=0 / fgo=0 / bframes=3 / b_pyramid=1 / b_adapt=1 / b_bias=0 / direct=3 / wpredb=1 / bime=1 / keyint=240 / keyint_min=24 / scenecut=40(pre) / rc=2pass / bitrate=6218 / ratetol=1.0 / rceq='blurCplx^(1-qComp)' / qcomp=1.00 / qpmin=10 / qpmax=51 / qpstep=4 / cplxblur=20.0 / qblur=0.5 / ip_ratio=1.40 / pb_ratio=1.30 / aq=2:1.00
Language                    : English
Default                     : Yes
Forced                      : No

Audio
ID                          : 2
Format                      : AC-3
Format/Info                 : Audio Coding 3
Commercial name             : Dolby Digital
Codec ID                    : A_AC3
Duration                    : 1 h 31 min
Bit rate mode               : Constant
Bit rate                    : 640 kb/s
Channel(s)                  : 6 channels
Channel layout              : L R C LFE Ls Rs
Sampling rate               : 48.0 kHz
Frame rate                  : 31.250 FPS (1536 SPF)
Bit depth                   : 16 bits
Compression mode            : Lossy
Stream size                 : 418 MiB (9%)
Language                    : English
Service kind                : Complete Main
Default                     : Yes
Forced                      : No

Text #1
ID                          : 3
Format                      : UTF-8
Codec ID                    : S_TEXT/UTF8
Codec ID/Info               : UTF-8 Plain Text
Title                       : Ukr full
Language                    : Ukrainian
Default                     : Yes
Forced                      : Yes

Text #2
ID                          : 4
Format                      : UTF-8
Codec ID                    : S_TEXT/UTF8
Codec ID/Info               : UTF-8 Plain Text
Title                       : Eng full
Language                    : English
Default                     : No
Forced                      : No

Menu
00:00:00.000                : en:Chapter 1
00:00:21.480                : en:Chapter 2
00:03:51.022                : en:Chapter 3
00:19:22.244                : en:Chapter 4
00:32:44.838                : en:Chapter 5
00:41:45.962                : en:Chapter 6
00:55:54.726                : en:Chapter 7
01:04:56.935                : en:Chapter 8
01:12:20.419                : en:Chapter 9
01:21:20.959                : en:Chapter 10
Скріншоти
Джерело: &


 Трекер:    Зареєстрований   

Завантажити / скачати фільм українською



відео для новачків



 Зареєстрований:   2018-12-22 21:07
 Розмір:   8.75 GB 
 Оцінка фільму:   10/10 (Голосів: 5)
   
kryk-v.ya. 
Попереджень: 1
Попереджень: 1 


З нами з: 14.02.14
Востаннє: 28.11.20
Повідомлень: 2347

2018-12-25 17:03  
класний фільм,шкода що нема озвучки.
Ваш часовий пояс: GMT + 2 Години

Нова тема   Відповісти