Джеймс Бонд. Агент 007: Доктор Ноу / James Bond: Dr. No (1962) Remux 1080p Ukr/Eng | Sub Ukr/Eng

Нові коментарі

Нова тема   Відповісти
Автор Повідомлення
MakRA 
VIP


З нами з: 11.11.18
Востаннє: 30.09.20
Повідомлень: 1120

2018-12-22 04:00  
Джеймс Бонд. Агент 007: Доктор Ноу / James Bond: Dr. No (1962) Remux 1080p Ukr/Eng | Sub Ukr/Eng

Джеймс Бонд. Агент 007: Доктор Ноу / James Bond: Dr. No (1962) Remux 1080p Ukr/Eng | Sub Ukr/Eng
Альтернативний постер:

Джеймс Бонд. Агент 007: Доктор Ноу / James Bond: Dr. No (1962) Remux 1080p Ukr/Eng | Sub Ukr/Eng


Жанр: бойовик, пригодницький, екшн, трилер
Країна: Велика Британія, США



Кінокомпанія: EON Productions
Режисер: Теренс Янг [Terence Young]
Актори: Шон Коннері [Sir Thomas Sean Connery], Урсула Андресс [Ursula Andress], Джозеф Вайсман [Joseph Weismann],Джек Лорд [Jack Lord], Ентоні Доусон [Anthony Dawson], Джон Кіцміллер [John Kitzmiller], Бернард Лі [Bernard Lee], Лоїс Максвелл [Lois Maxwell], Зена Маршалл [Zena Marshall], Еніс Гейсон [Eunice Gayson], Пітер Бертон [Peter Burton], Тімоті Моксон [Timothy Moxon]

Сюжет:
Легендарна, найперша екранізація однойменної новели британського письменника Яна Флемінга про англійського суперагента Джеймса Бонда. Нев'януча класика середини ХХ століття і сьогодні не втратила свого глядача. У стрічці у всій красі постають Шон Коннері, Урсула Андресс, Джозеф Вайсмен, Джек Лорд та інші відомі зірки світового кіно.

Джеймсу Бонду необхідно знайти джерело перешкод комп'ютерної мережі в пускових шахтах США на мисі Канаверал. Він відправляється в припустимий мозковий центр ворогів на Ямайці, де йому доведеться зіткнутись з представником могутньої структури «Спектр» Доктором Ноу, який одержимий бажанням захопити весь світ у свої металеві руки.

Єдиний фільм Бондіани, де нема традиційного прологу перед початковими титрами.


Тривалість: 01:49:50
Якість: Remux 1080p
Відео:
кодек:
розмір кадру: 1920 х 1080
бітрейт: 29,3 Мб/с

Аудіо # 1:
мова: українська
переклад: багатоголосий закадровий
кодек: 2.0
бітрейт: 192 kb/s

Аудіо # 2:
мова: англійська
переклад: оригінал
кодек: 2.0
бітрейт: 224 kb/s

Аудіо # 3:
мова: англійська
переклад: оригінал
кодек: -HD MA 5.1
бітрейт: 3072 кб/с

Джерело озвучення:


Субтитри # 1:
мова: українська
тип: пререндерні
формат: *.pgs

Субтитри # 2:
мова: англійська
тип: пререндерні
формат: *.pgs
Info
General
Unique ID : 335039139902357921982695948154336891017 (0xFC0E30F30167F6722F2653CC758ED089)
Complete name : E:\! Моя роздача\James Bond Dr. No (1962) Remux 1080p Ukr Eng sub Ukr Eng [Hurtom].
Format :
Format version : Version 4 / Version 2
File size : 25.2 GiB
Duration : 1 h 49 min
Overall bit rate mode : Variable
Overall bit rate : 32.8 Mb/s
Encoded date : UTC 2018-12-21 23:48:07
Writing application : v25.0.0 ('Prog Noir') 64-bit
Writing library : libebml v1.3.6 + v1.4.9

Video
ID : 1
Format : AVC
Format/Info : Advanced Video Codec
Format profile : [email protected]
Format settings, CABAC : Yes
Format settings, RefFrames : 4 frames
Codec ID : V_MPEG4/ISO/AVC
Duration : 1 h 49 min
Bit rate mode : Variable
Bit rate : 29.3 Mb/s
Maximum bit rate : 35.9 Mb/s
Width : 1 920 pixels
Height : 1 080 pixels
Display aspect ratio : 16:9
Frame rate mode : Constant
Frame rate : 23.976 (24000/1001) FPS
Color space : YUV
Chroma subsampling : 4:2:0
Bit depth : 8 bits
Scan type : Progressive
Bits/(Pixel*Frame) : 0.589
Stream size : 22.5 GiB (89%)
Title : James Bond: Dr. No (1962) Remux 1080p Ukr/Eng | sub Ukr/Eng
Language : Ukrainian
Default : Yes
Forced : Yes
Color range : Limited
Color primaries : BT.709
Transfer characteristics : BT.709
Matrix coefficients : BT.709

Audio #1
ID : 2
Format : AC-3
Format/Info : Audio Coding 3
Format settings, Endianness : Big
Codec ID : A_AC3
Duration : 1 h 49 min
Bit rate mode : Constant
Bit rate : 192 kb/s
Channel(s) : 2 channels
Channel positions : Front: L R
Sampling rate : 48.0 kHz
Frame rate : 31.250 FPS (1536 SPF)
Bit depth : 16 bits
Compression mode : Lossy
Stream size : 151 MiB (1%)
Title : MVO [ICTV]
Language : Ukrainian
Service kind : Complete Main
Default : Yes
Forced : Yes

Audio #2
ID : 3
Format : AC-3
Format/Info : Audio Coding 3
Format settings, Endianness : Big
Codec ID : A_AC3
Duration : 1 h 49 min
Bit rate mode : Constant
Bit rate : 224 kb/s
Channel(s) : 2 channels
Channel positions : Front: L R
Sampling rate : 48.0 kHz
Frame rate : 31.250 FPS (1536 SPF)
Bit depth : 16 bits
Compression mode : Lossy
Stream size : 176 MiB (1%)
Title : Original
Language : English
Service kind : Complete Main
Default : No
Forced : No

Audio #3
ID : 4
Format :
Format/Info : Digital Theater Systems
Format profile : MA / Core
Mode : 16
Format settings, Endianness : Big
Codec ID : A_DTS
Duration : 1 h 49 min
Bit rate mode : Variable / Constant
Bit rate : 3 072 kb/s / 1 509 kb/s
Channel(s) : 6 channels
Channel positions : Front: L C R, Side: L R, LFE
Sampling rate : 48.0 kHz
Frame rate : 93.750 FPS (512 SPF)
Bit depth : 24 bits
Compression mode : Lossless / Lossy
Stream size : 2.34 GiB (9%)
Title : Original
Language : English
Default : No
Forced : No

Text #1
ID : 5
Format : PGS
Muxing mode : zlib
Codec ID : S_HDMV/PGS
Codec ID/Info : Picture based subtitle format used on BDs/HD-DVDs
Duration : 1 h 47 min
Bit rate : 18.0 kb/s
Count of elements : 2000
Stream size : 13.8 MiB (0%)
Title : Ukr
Language : Ukrainian
Default : No
Forced : No

Text #2
ID : 6
Format : PGS
Muxing mode : zlib
Codec ID : S_HDMV/PGS
Codec ID/Info : Picture based subtitle format used on BDs/HD-DVDs
Duration : 1 h 45 min
Bit rate : 22.4 kb/s
Count of elements : 1910
Stream size : 17.0 MiB (0%)
Title : Eng
Language : English
Default : No
Forced : No
Скріншоти
Джерело: &
Особиста оцінка: 10 - без зайвих вагань рекомендую всім!



Золотий реліз (завантажене не впливає на рейтинг)
 Трекер:    Зареєстрований   

Завантажити / скачати фільм українською



відео для новачків



 Зареєстрований:   2018-12-22 04:00
 Розмір:   25.16 GB 
 Оцінка фільму:   9.9/10 (Голосів: 11)
   
Ваш часовий пояс: GMT + 2 Години

Нова тема   Відповісти