Білий хлопець Рік / White Boy Rick (2018)

Нові коментарі

Нова тема   Відповісти
Автор Повідомлення
DniproFilm 
VIP


З нами з: 10.10.18
Востаннє: 05.12.19
Повідомлень: 294

2018-12-21 20:34  
Білий хлопець Рік / White Boy Rick (2018)

Білий хлопець Рік / White Boy Rick (2018)


Жанр: драма, кримінальний
Країна: США



Кінокомпанія: LBI Productions, Protozoa Pictures, Studio 8
Режисер: Ян Деманж
Актори: Метью МакКонахі, Річі Мерріт, Бел Паулі, Дженіфер Джейсон Лі, Брайан Тайрі Генрі, Рорі Кокрейн, АрДжей Сайлер, Джонатан Мейджерс, Едді Марсан, Тейлор Пейдж та інші

Сюжет:
Заснована на реальних подіях історія життя Річарда Верша-молодшого, котрий у 80-ті роки минулого століття працював
"під прикриттям" на поліцію, потім сам став наркодилером, був заарештований та засудженний на довічне ув'язнення.


Тривалість: 01:51:34

Якість:
Відео:
кодек:
розмір кадру: 720x300
бітрейт: ~1800 кб/с

Аудіо # 1:
мова: українська
переклад: багатоголосий закадровий
кодек: 5.1
бітрейт: 384 кб/с

Джерело озвучення:
DniproFilm
Info

Video
ID : 0
Format : MPEG-4 Visual
Format profile : Advanced [email protected]
Format settings : BVOP2
Format settings, BVOP : 2
Format settings, QPel : No
Format settings, GMC : No warppoints
Format settings, Matrix : Default (H.263)
Muxing mode : Packed bitstream
Codec ID :
Codec ID/Hint :
Duration : 1 h 51 min
Bit rate : 1 752 kb/s
Width : 720 pixels
Height : 300 pixels
Display aspect ratio : 2.40:1
Frame rate : 23.976 (24000/1001) FPS
Color space : YUV
Chroma subsampling : 4:2:0
Bit depth : 8 bits
Scan type : Progressive
Compression mode : Lossy
Bits/(Pixel*Frame) : 0.338
Stream size : 1.37 GiB (82%)
Writing library : 67

Audio
ID : 1
Format : AC-3
Format/Info : Audio Coding 3
Commercial name : Dolby Digital
Codec ID : 2000
Duration : 1 h 51 min
Bit rate mode : Constant
Bit rate : 384 kb/s
Channel(s) : 6 channels
Channel positions : Front: L C R, Side: L R, LFE
Sampling rate : 48.0 kHz
Frame rate : 31.250 FPS (1536 SPF)
Bit depth : 16 bits
Compression mode : Lossy
Stream size : 306 MiB (18%)
Alignment : Aligned on interleaves
Interleave, duration : 42 ms (1.00 video frame)
Interleave, preload duratio : 512 ms
Service kind : Complete Main
Скріншоти


Увага, присутня відео та аудіореклама.


Джерело: DniproFilm


Авторський реліз (завантажувати можна без реєстрації)
 Трекер:    Зареєстрований   

Завантажити / скачати фільм українською



відео для новачків



 Зареєстрований:   2018-12-21 20:34
 Розмір:   1.67 GB 
 Оцінка фільму:   9/10 (Голосів: 41)
   
21jumpstreet 
VIP


З нами з: 03.07.12
Востаннє: 05.12.19
Повідомлень: 721

2018-12-21 21:20  
А у нас в кіно буде цей фільм?
st_78 
VIP


З нами з: 18.11.16
Востаннє: 05.12.19
Повідомлень: 1203

2018-12-21 21:57  
piznajko 
Відео Гуртом - субтитрування
Відео Гуртом - субтитрування


З нами з: 24.02.09
Востаннє: 05.12.19
Повідомлень: 1999

2018-12-21 22:15  
st_78 написано:

21jumpstreet, буде.
https://www.imdb.com/title/tt4537896/releaseinfo?ref_=tt_dt_dt#releases


Не буде. B&H планували випустити 31 січня 2018 року (ось трейлер https://www.youtube.com/watch?v=SkIiYI6GDX8 ), але з невідомих причин фільм зняли з їх прокатного графіка без пояснень (як вони завжди роблять; нуль взагалі пояснень чому фільм раптово зникає з їхнього розкладу. Але це ж саме роблять UFD/Kinomania)

Mongoose 
Свій


З нами з: 27.03.16
Востаннє: 03.12.19
Повідомлень: 142

2018-12-22 00:48  
Най шляк трафить тих рекламників і ті лотереї з казино
sinpavla 
Свій


З нами з: 15.06.12
Востаннє: 05.12.19
Повідомлень: 117

2018-12-22 07:04  
красно дякую
romantomchak 
Новенький


З нами з: 28.10.11
Востаннє: 04.12.19
Повідомлень: 2

2018-12-22 10:54  
За озвучення звісно велика подяка, але можна не псувати фільм і не додавати водні знаки на відео? Чи взагалі рекламу?
ilitbr 
VIP


З нами з: 25.05.09
Востаннє: 03.12.19
Повідомлень: 458

2018-12-22 13:34  
Дякую! Чекав цей фільм!

Щодо реклами - мені не заважає, аби продовжували озвучувати українською. Дякую за Вашу працю!!!

chokur 
Новенький


З нами з: 03.07.17
Востаннє: 04.12.19
Повідомлень: 3

2018-12-24 12:22  
Фільм ніякий. Сюжет - наркотики то є зло. (Це і так всі знають). Поліції вірити не можна. (Це теж всі знають). Кара невідворотна. Метью МакКонахі - сильний актор, а тут просто заробив бабла не напружуючись.
Фільм для підлітків, які думають, що ганстер, наркота і пушки - це круто.

realr 
Частий відвідувач


З нами з: 22.10.11
Востаннє: 30.11.19
Повідомлень: 31

2018-12-24 20:18  
Мені фільм сподобався. Є сюжетна лінія. Є гра акторів. Є мораль
пан Струмок 
Поважний учасник


З нами з: 19.02.13
Востаннє: 05.12.19
Повідомлень: 222

2018-12-28 21:15  
Христос на ослі! На останньому знятку сивочолий дідуган з "Небраски", беру наосліп

Вельми посереднє кінце про людські злидні та хиби, як одне перетікає в друге і павпак . Про те, що на кожного розбишаку чигає поважна западлянка. 6-7/10

sanya.everlast 
Новенький


З нами з: 03.10.15
Востаннє: 05.12.19
Повідомлень: 23

2018-12-29 00:18  
реклами задовбали
[лайку, флейм видалено]

Apple 
Свій


З нами з: 13.07.08
Востаннє: 05.12.19
Повідомлень: 88

2019-01-21 22:11  
sanya.everlast
оплатіть нетфлікс, там нема.

Додано через 1 годину 59 хвилин 3 секунди:

chokur
то нічого, що фільм про справжнього Richard Wershe Jr.? Довго думав, поки писав?)))

Ваш часовий пояс: GMT + 2 Години

Нова тема   Відповісти