Хроніки Різдва / The Christmas Chronicles (2018) 720p Ukr/Eng | Sub Eng

Нові коментарі

Нова тема   Відповісти
Автор Повідомлення
Anonymous 







2018-12-21 20:32  
Хроніки Різдва / The Christmas Chronicles (2018) 720p Ukr/Eng | Sub Eng

Хроніки Різдва / The Christmas Chronicles (2018) 720p Ukr/Eng | Sub Eng


Жанр: фентезі, комедія, пригодницький, сімейний
Країна: США



Кінокомпанія: Netflix
Режисер: Клей Кертіс
Актори: Курт Расселл, Кімберлі Вільямс, Олівер Хадсон, Дербі Кемпл, Ламон Морріс, Мартін Роуч, Велла Ловелл, Лорен Колінз, Голді Хоун

Сюжет:
Тедді та Кейт Пріс хочуть довести існування Санта-Клауса. Замість милого дідуся діти знаходять гострого на язик та харизматичного господаря Різдва. Разом із Сантою вони відправляються у чарівну подорож та намагаються врятувати улюблене свято.


Реліз без реклами


Тривалість: 01:44:27
Якість: 720p
Відео:
кодек:
розмір кадру: 1280 x 690
бітрейт: 3365 кб/с

Аудіо # 1:
мова: українська
переклад: багатоголосий закадровий | DniproFilm
кодек: 5.1
бітрейт: 384 кб/с

Аудіо # 2:
мова: англійська
переклад: оригінал
кодек: E- JOC 5.1
бітрейт: 448 кб/с

Субтитри:
мова: англійська
тип: програмні (м'які)
формат: *.srt
Info
Format :
Format version : Version 4
File size : 3.06 GiB
Duration : 1 h 44 min
Overall bit rate : 4 196 kb/s
Movie name : CMRG
Encoded date : UTC 2018-12-21 17:16:12
Writing application : v27.0.0 ('Metropolis') 64-bit
Writing library : libebml v1.3.6 + v1.4.9

Video
ID : 1
Format : AVC
Format/Info : Advanced Video Codec
Format profile : [email protected]
Format settings : CABAC / 5 Ref Frames
Format settings, CABAC : Yes
Format settings, ReFrames : 5 frames
Codec ID : V_MPEG4/ISO/AVC
Duration : 1 h 44 min
Bit rate : 3 365 kb/s
Width : 1 280 pixels
Height : 690 pixels
Display aspect ratio : 1.85:1
Frame rate mode : Constant
Frame rate : 24.000 FPS
Color space : YUV
Chroma subsampling : 4:2:0
Bit depth : 8 bits
Scan type : Progressive
Bits/(Pixel*Frame) : 0.159
Stream size : 2.46 GiB (80%)
Writing library : core 157 r2935 545de2f
Encoding settings : cabac=1 / ref=5 / deblock=1:-3:-3 / analyse=0x3:0x113 / me=hex / subme=8 / psy=1 / psy_rd=1.00:0.15 / mixed_ref=1 / me_range=16 / chroma_me=1 / trellis=2 / 8x8dct=1 / cqm=0 / deadzone=21,11 / fast_pskip=0 / chroma_qp_offset=-2 / threads=22 / lookahead_threads=3 / sliced_threads=0 / nr=0 / decimate=1 / interlaced=0 / bluray_compat=0 / constrained_intra=0 / bframes=3 / b_pyramid=2 / b_adapt=1 / b_bias=0 / direct=3 / weightb=1 / open_gop=0 / weightp=2 / keyint=240 / keyint_min=24 / scenecut=40 / intra_refresh=0 / rc_lookahead=50 / rc=crf / mbtree=1 / crf=18.0 / qcomp=0.60 / qpmin=0 / qpmax=69 / qpstep=4 / ip_ratio=1.40 / aq=3:0.80
Language : English
Default : Yes
Forced : No

Audio #1
ID : 2
Format : AC-3
Format/Info : Audio Coding 3
Commercial name : Dolby Digital
Codec ID : A_AC3
Duration : 1 h 43 min
Bit rate mode : Constant
Bit rate : 384 kb/s
Channel(s) : 6 channels
Channel layout : L R C LFE Ls Rs
Sampling rate : 48.0 kHz
Frame rate : 31.250 FPS (1536 SPF)
Bit depth : 16 bits
Compression mode : Lossy
Stream size : 284 MiB (9%)
Title : MVO - [DniproFilm]
Language : Ukrainian
Service kind : Complete Main
Default : Yes
Forced : No

Audio #2
ID : 3
Format : E-AC-3 JOC
Format/Info : Enhanced AC-3 with Joint Object Coding
Commercial name : Dolby Digital Plus with Dolby Atmos
Codec ID : A_EAC3
Duration : 1 h 44 min
Bit rate mode : Constant
Bit rate : 448 kb/s
Channel(s) : 6 channels
Channel layout : L R C LFE Ls Rs
Sampling rate : 48.0 kHz
Frame rate : 31.250 FPS (1536 SPF)
Compression mode : Lossy
Stream size : 335 MiB (11%)
Language : English
Service kind : Complete Main
Default : No
Forced : No
Complexity index : 16
Number of dynamic objects : 15
Bed channel count : 1 channel
Bed channel configuration : LFE

Text
ID : 4
Format : UTF-8
Codec ID : S_TEXT/UTF8
Codec ID/Info : UTF-8 Plain Text
Duration : 1 h 40 min
Bit rate : 78 b/s
Count of elements : 1908
Stream size : 58.1 KiB (0%)
Language : English
Default : No
Forced : No
Скріншоти





Джерело: та DniproFilm
Особиста оцінка: 8 - мені сподобалося


Авторський реліз (завантажувати можна без реєстрації)
 Трекер:    Зареєстрований   

Завантажити / скачати фільм українською



відео для новачків



 Зареєстрований:   2018-12-21 20:32
 Розмір:   3.06 GB 
 Оцінка фільму:   9.1/10 (Голосів: 76)
   
Інші релізи
EvGaS 
Відео Гуртом - субтитрування
Відео Гуртом - субтитрування


З нами з: 27.02.12
Востаннє: 30.04.19
Повідомлень: 5678

2018-12-22 12:06  
Anonymous написано:
Реліз без реклами

Нарешті почалося!

madagaskar1 
VIP


З нами з: 08.05.14
Востаннє: 21.05.19
Повідомлень: 679

2018-12-22 12:11  
о молодець хтось, продовжуйте далі викладати такі реалізи
zawarudo 
Свій


З нами з: 20.11.16
Востаннє: 18.05.19
Повідомлень: 131

2018-12-22 12:21  
Релізера у бан. Я вважаю що це справжнісіньке свинство.
EvGaS 
Відео Гуртом - субтитрування
Відео Гуртом - субтитрування


З нами з: 27.02.12
Востаннє: 30.04.19
Повідомлень: 5678

2018-12-22 12:25  
madagaskar1 написано:
о молодець хтось, продовжуйте далі викладати такі реалізи

zawarudo написано:
Релізера у бан. Я вважаю що це справжнісіньке свинство.

Ось вам тема, там і дискутуйте:
https://toloka.to/t97486

Надалі попрошу всіх утриматись від коментарів, нестосовних фільму напряму. (визнаю, винен, і сам тут нафлудив трошки)

Cartwright 
Поважний учасник


З нами з: 23.03.13
Востаннє: 22.05.19
Повідомлень: 210

2018-12-22 13:32  
Релізера в бан!
Anonymous 







2018-12-22 14:03  
zawarudo написано:
Релізера у бан


Cartwright написано:
Релізера в бан!


Може вас панове заблокувати, га?
Релізер ніяких правил не порушує, а ви ніяких прав нав'язувати свої не маєте.

mika4a 
Новенький


З нами з: 24.04.16
Востаннє: 19.05.19
Повідомлень: 3

2018-12-22 23:06  
так реклама є чи немає??
igor911 
Модератор відео


З нами з: 18.01.08
Востаннє: 22.05.19
Повідомлень: 12522

2018-12-22 23:28  
mika4a
Цитата:
Реліз без реклами

O_omarella! 
Свій


З нами з: 14.06.13
Востаннє: 11.05.19
Повідомлень: 116

2018-12-24 14:50  
мені не зайшло, але дружині сподобалось.
lliyjibli 
Новенький


З нами з: 14.06.10
Востаннє: 07.04.19
Повідомлень: 4

2018-12-26 18:09  
Гарний фільм, легкий та веселий!

на 32 секунді - 25 грудня 2006 року, а переклали 25 січня... Happy

kryk-v.ya. 
VIP


З нами з: 14.02.14
Востаннє: 22.05.19
Повідомлень: 1211

2019-01-01 01:31  
Cartwright написано:
Релізера в бан!

а якщо релізер-сам адмін? Wide grin

Lyolic 
VIP


З нами з: 04.08.09
Востаннє: 22.05.19
Повідомлень: 359

2019-01-01 05:22  
kryk-v.ya.
Можливо так і є, як мінімум, хтось з модераторів Happy
Як би там не було, релізеру - СЛАВА!!!

fifiabe 
Новенький


З нами з: 13.11.15
Востаннє: 19.05.19
Повідомлень: 17

2019-01-01 23:31  
дивились сім'єю в Новорічну ніч після того як напилися та наїлися. Всім сподобалось. Правда, мені спочатку трохи було занудно, але після появи Санти стало нормально. Просте та гарне Різдвяне кіно із своїм легким гумором.
igor911 
Модератор відео


З нами з: 18.01.08
Востаннє: 22.05.19
Повідомлень: 12522

2019-01-01 23:46  
Гарний фільм для сімейного перегляду.
kosmich 
Новенький


З нами з: 04.12.15
Востаннє: 22.05.19
Повідомлень: 4

2019-01-02 22:40  
відверто дитяче кіно
-danger- 
Новенький


З нами з: 26.02.10
Востаннє: 16.05.19
Повідомлень: 13

2019-01-08 12:31  
Дякую за реліз без реклами
У глядача повинен бути вибір: реклама чи без.

Петров Микола 
VIP


З нами з: 15.08.14
Востаннє: 22.05.19
Повідомлень: 518

2019-01-08 16:24  
-danger- написано:
У глядача повинен бути вибір: реклама чи без.

Скоріше, чи платити і дивитися без реклами, тобто офіційно(Мегого, Нетфлікс і.т.д), або дивитися безкоштовно, і якщо там є реклама, то в цьому є певна логіка.

Djohnnikey 
Поважний учасник


З нами з: 01.10.15
Востаннє: 21.05.19
Повідомлень: 176

2019-01-13 00:06  
Дуже атмосферне кіно, яке повертає віру у Різдво. Можливо, не без пробілів у сюжеті і з дивними хвостатими ельфами, але емоційно воно бере своє. До того ж Санта у виконанні Рассела дуже нестандартний (що він сам же і підкреслює).
8 з 10.

ubambuk 
Новенький


З нами з: 27.03.18
Востаннє: 20.04.19
Повідомлень: 1

2019-01-13 17:55  
Я вибачаюсь, але кіно просто величезна какашка, подивіться краще "Один у дома".
hudda 
Свій


З нами з: 07.06.09
Востаннє: 22.05.19
Повідомлень: 75

2019-01-18 20:03  
-danger- написано:
У глядача повинен бути вибір: реклама чи без.

(Не захищаю DniproFilm з його нав'язливою рекламою, але) з якого це переляку, якщо він (глядач) ні за що не платить?

olimpian1 
Поважний учасник


З нами з: 19.10.13
Востаннє: 21.05.19
Повідомлень: 160

2019-01-25 20:15  
Гарний сімейний фільм
Ваш часовий пояс: GMT + 2 Години

Нова тема   Відповісти