Теорія великого вибуху (Сезон 6) / The Big Bang Theory (Season 6) (2012) 1080p Ukr/Eng | Sub Eng

Нові коментарі

Нова тема   Відповісти
Автор Повідомлення
Argentum 
VIP


З нами з: 25.09.11
Востаннє: 04.12.20
Повідомлень: 263

2018-12-21 18:21  
Теорія великого вибуху (Сезон 6) / The Big Bang Theory (Season 6) (2012) 1080p Ukr/Eng | Sub Eng


Теорія великого вибуху (Сезон 6) / The Big Bang Theory (Season 6) (2012) 1080p Ukr/Eng | Sub Eng


Жанр: комедія
Країна: США



Кінокомпанія: Chuck Lorre Productions, Warner Brothers Television
Режисер: Марк Цендровський, Пітер Чакос
Актори: Джоні Ґалецкі, Джим Парсонс, Кейлі Куоко, Саймон Гелберґ, Кунал Найар, Мелісса Ройч, Маїм Бялік

Сюжет:
Леонард і Шелдон — блискучі фізики, розумники, що знаються на тому, як "працює всесвіт". Але геніальність ані трішечки не допомагає їм у спілкуванні з людьми, особливо жінками. Шелдон взагалі вважає, що чоловіки та жінки належать до різних біологічних видів. Але для Леонарда все змінюється з появою нової сусідки — білявки Пенні.

Друзі геніїв не менш дивакуваті. Воловіц живе зі своєю мамою та стверджує, що насправді це вона з ним живе. Вдає з себе дамського улюбленця, систематично застосовуючи сумнівні поради по знайомству з дівчатами. Раджеш Кутрапалі приймає ліки для подолання патологічної скромності, але все одно втрачає дар мови при появі жінок.

Персонажі серіала відрізняються неабиякими розумовими здібностями, мають свої "фішки" та звички. Коло друзів поступово змінюється, а життя підкидає все більше теорем і парадоксів...


Тривалість: 1 серія: 22:00 (цілком серій: 24)
Перелік серій
6x01. The Date Night Variable
6x02. The Decoupling Fluctuation
6x03. The Higgs Boson Observation
6x04. The Re-Entry Minimization
6x05. The Holographic Excitation
6x06. The Extract Obliteration
6x07. The Habitation Configuration
6x08. The 43 Peculiarity
6x09. The Parking Spot Escalation
6x10. The Fish Guts Displacement
6x11. The Santa Simulation
6x12. The Egg Salad Equivalency
6x13. The Bakersfield Expedition
6x14. The Cooper/Kripke Inversion
6x15. The Spoiler Alert Segmentation
6x16. The Tangible Affection Proof
6x17. The Monster Isolation
6x18. The Contractual Obligation Implementation
6x19. The Closet Reconfiguration
6x20. The Tenure Turbulence
6x21. The Closure Alternative
6x22. The Proton Resurgence
6x23. The Love Spell Potential
6x24. The Bon Voyage Reaction
Якість:
Відео:
кодек:
розмір кадру: 1920 х 1080
бітрейт: 11000 кб/с

Аудіо # 1:
мова: українська
переклад: багатоголосий закадровий
кодек: 2.0
бітрейт: 192 кб/с

Аудіо # 2:
мова: англійська
переклад: оригінал
кодек: 5.1
бітрейт: 640 кб/с

Субтитри:
мова: англійська
тип: програмні (м'які)
формат: *.srt
Info
General
Unique ID : 193623439516182495835198280226463694285 (0x91AA849C4CC3F0FD4A06FD3308E63DCD)
Complete name : The Big Bang Theory. S06E01 (2012) [Ukr,Eng] 1080p [Hurtom].
Format :
Format version : Version 4
File size : 1.75 GiB
Duration : 21 min 12 s
Overall bit rate : 11.8 Mb/s
Movie name : 6x01. The Date Night Variable
Encoded date : UTC 2018-12-17 15:49:09
Writing application : v29.0.0 ('Like It Or Not') 64-bit
Writing library : libebml v1.3.6 + v1.4.9

Video
ID : 1
Format : AVC
Format/Info : Advanced Video Codec
Format profile : [email protected]
Format settings : CABAC / 4 Ref Frames
Format settings, CABAC : Yes
Format settings, ReFrames : 4 frames
Codec ID : V_MPEG4/ISO/AVC
Duration : 21 min 11 s
Bit rate : 11.0 Mb/s
Width : 1 920 pixels
Height : 1 080 pixels
Display aspect ratio : 16:9
Frame rate mode : Constant
Frame rate : 23.976 (24000/1001) FPS
Color space : YUV
Chroma subsampling : 4:2:0
Bit depth : 8 bits
Scan type : Progressive
Bits/(Pixel*Frame) : 0.221
Stream size : 1.63 GiB (93%)
Title : AVC 1920*1080 @ 11 Mbps
Writing library : core 152 r2854 e9a5903
Encoding settings : cabac=1 / ref=4 / deblock=1:-3:-3 / analyse=0x3:0x133 / me=umh / subme=11 / psy=1 / psy_rd=1,00:0,15 / mixed_ref=1 / me_range=48 / chroma_me=1 / trellis=2 / 8x8dct=1 / cqm=0 / deadzone=21,11 / fast_pskip=0 / chroma_qp_offset=-3 / threads=12 / lookahead_threads=2 / sliced_threads=0 / nr=0 / decimate=1 / interlaced=0 / bluray_compat=0 / constrained_intra=0 / bframes=8 / b_pyramid=2 / b_adapt=2 / b_bias=0 / direct=3 / weightb=1 / open_gop=0 / weightp=2 / keyint=240 / keyint_min=24 / scenecut=40 / intra_refresh=0 / rc_lookahead=60 / rc=2pass / mbtree=0 / bitrate=11000 / ratetol=1,0 / qcomp=0,60 / qpmin=0 / qpmax=69 / qpstep=4 / cplxblur=20,0 / qblur=0,5 / vbv_maxrate=62500 / vbv_bufsize=78125 / nal_hrd=none / filler=0 / ip_ratio=1,40 / pb_ratio=1,30 / aq=1:1,00
Language : Multiple languages
Default : Yes
Forced : Yes
Color range : Limited
Color primaries : BT.709
Transfer characteristics : BT.709
Matrix coefficients : BT.709

Audio #1
ID : 2
Format : AC-3
Format/Info : Audio Coding 3
Commercial name : Dolby Digital
Codec ID : A_AC3
Duration : 21 min 11 s
Bit rate mode : Constant
Bit rate : 192 kb/s
Channel(s) : 2 channels
Channel layout : L R
Sampling rate : 48.0 kHz
Frame rate : 31.250 FPS (1536 SPF)
Bit depth : 16 bits
Compression mode : Lossy
Stream size : 29.1 MiB (2%)
Title : 2.0 @ 192 Kbps # Paramount COMEDY
Language : Ukrainian
Service kind : Complete Main
Default : Yes
Forced : Yes

Audio #2
ID : 3
Format : AC-3
Format/Info : Audio Coding 3
Commercial name : Dolby Digital
Codec ID : A_AC3
Duration : 21 min 12 s
Bit rate mode : Constant
Bit rate : 640 kb/s
Channel(s) : 6 channels
Channel layout : L R C LFE Ls Rs
Sampling rate : 48.0 kHz
Frame rate : 31.250 FPS (1536 SPF)
Bit depth : 16 bits
Compression mode : Lossy
Stream size : 97.1 MiB (5%)
Title : 5.1 @ 640 Kbps
Language : English
Service kind : Complete Main
Default : No
Forced : No

Text
ID : 4
Format : UTF-8
Codec ID : S_TEXT/UTF8
Codec ID/Info : UTF-8 Plain Text
Duration : 20 min 36 s
Bit rate : 90 b/s
Count of elements : 440
Stream size : 13.7 KiB (0%)
Title : English
Language : English
Default : No
Forced : No

Menu
00:00:00.000 : en:Chapter 01
00:00:17.684 : en:Chapter 02
00:02:42.829 : en:Chapter 03
00:09:04.377 : en:Chapter 04
00:19:46.560 : en:Chapter 05
00:20:43.033 : en:Chapter 06
Скріншоти







Джерело:
Особиста оцінка: 10 - без зайвих вагань рекомендую всім!



Не забуваємо тиснути "Дякую"!


Срібний реліз (на рейтинг впливає 50% завантаженого)
 Трекер:    Зареєстрований   

Завантажити / скачати серіал українською



відео для новачків



 Зареєстрований:   2018-12-21 18:41
 Розмір:   41.17 GB 
 Оцінка серіалу:   10/10 (Голосів: 13)
   
wuzicka 
Новенький


З нами з: 08.03.10
Востаннє: 04.12.20
Повідомлень: 18

2018-12-22 12:38  
Дякую!
А сіди де?

Ваш часовий пояс: GMT + 2 Години

Нова тема   Відповісти