Велика прогулянка / La Grande Vadrouille (1966) Remux 1080p [50th Anniversary Edition, Remastered] Ukr/Fre | Sub Eng

Нові коментарі

Нова тема   Відповісти
Автор Повідомлення
MakRA 
VIP


З нами з: 11.11.18
Востаннє: 28.09.20
Повідомлень: 1120

2018-12-21 17:12  
Велика прогулянка / La Grande Vadrouille (1966) Remux 1080p [50th Anniversary Edition, Remastered] Ukr/Fre | Sub Eng

Український постер:

Альтернативні постери:






Жанр: комедія, військовий, пригодницький
Країна: Франція , Великобританія



Кінокомпанія: Rank Organisation
Режисер: Жерар Урі [Gérard Oury]
Актори: Луі де Фюнес [Louis de Funès], Бурвіль [Bourvil], Клаудіо Брук [Claudio Brook], Террі-Томас [Terry-Thomas], Майк Маршалл [Mike Marshall], Бенно Штерценбах [Benno Sterzenbach],Марі Дюбуа [Marie Duboi], Колетт Броссе [Colette Brosset] та інші

Сюжет:
Прекрасна та смішна військово-історична кінокомедія про страшні часи німецької окупації Франції та пригоди життєрадісних та рішучих французів.
Події фільму відбуваються на території окупованої Франції. Літо 1942 року. Небо над Парижем. Після виконання важливого завдання, англійський бомбардувальник збився з курсу і був збитий німецькими зенітниками.
Випадкові свідки-французи намагаються допомогти англійцям, на яких полює гестапо.
Гюстен Буве і диригент Паризької Опери Станіслас Лефор допомагають союзникам дістатись до підпільників з Руху Опору, але перед цим їх чекає чимало небезпечних та кумедних пригод…


Тривалість: 02:03:50 [50th Anniversary Edition, Remastered]
Якість: Remux 1080p
Відео:
кодек:
розмір кадру: 1920 х 1080
бітрейт: 36,6 Мб/с

Аудіо # 1:
мова: українська
переклад: багатоголосий закадровий
кодек: 5.1
бітрейт: 448 кб/с

Джерело озвучення:
ТО "Цікава ідея" на замовлення Hurtom.com
Про озвучення:

Українське озвучення створено студією ТО "Цікава ідея" на замовлення Hurtom.com в рамках проекту "Хочеш кіно українською? Замовляй!"



Дякуємо користувачам, що фінансово допомогли проекту:
Медяник, AlGor-1, deepzb11, Alien8, Hadron, OLENOCHKA1980, cheks, bordiur4yk, MarianB, foevtcov, Triffid, Назар Хочубий, Sheldon, maryana, Ялина, Arijl, andryk, ponedilok, Bushido, Sergo_k_s_v, slava_4, rudchenkos, Nazz80, deepfree, seitar, Yelovbasted, Тарас12, MisterR, MutuLI, willian, Dim-ON, victor_v, Skif3, at3s, vilnui, IvanB123456, cyclone2000, yarik_ratnik, Beneverfearful, kivan, virtus8hur, JoaJoa16, danyshtv, Aussie, Лунсар, nemos, sash.kr, Rost3, krotyk, nemos, stalker_cv, Demetrios, kino., Dars, NemoInFire, somnambula, sania2011, ppk21, Violator, freshwind
Також дякуємо 110 користувачам, що надали фінансову допомогу, але побажали бути анонімними.

Детальніше про проект.
Аудіо # 2:
мова: французька
переклад: оригінал
кодек: -HD MA 2.0
бітрейт: 856 кб/с

Аудіо # 3:
мова: французька
переклад: оригінал
кодек: 2.0
бітрейт: 192 кб/с

Субтитри # 1: (Forced) | на фрази аглійською мовою
мова: французька
тип: програмні (м'які)
формат: *.srt

Субтитри # 2: (Full)
мова: англійська
тип: програмні (м'які)
формат: *.srt

Збережено оригінальні розділи, як на Blu-ray.
Info
General
Unique ID : 220635059005370395546738422885179850581 (0xA5FCC445ED6FB0520B373C5B2351FF55)
Complete name : I:\+Фільмографії- Луї Де Фюнес [Louis de Funès]\La Grande Vadrouille (1966) Remux 1080p [50th Anniversary Edition, Remastered] UkrFre Sub Eng [Hurtom].
Format :
Format version : Version 4
File size : 33.0 GiB
Duration : 2 h 3 min
Overall bit rate mode : Variable
Overall bit rate : 38.1 Mb/s
Movie name : Велика прогулянка / La Grande Vadrouille (1966) Remux 1080p [50th Anniversary Edition, Remastered] Ukr/Fre | Sub Eng [Hurtom]
Encoded date : UTC 2019-11-12 07:50:03
Writing application : v25.0.0 ('Prog Noir') 64-bit
Writing library : libebml v1.3.6 + v1.4.9
Cover : Yes
Attachments : cover.jpg

Video
ID : 1
Format : AVC
Format/Info : Advanced Video Codec
Format profile : [email protected]
Format settings : CABAC / 2 Ref Frames
Format settings, CABAC : Yes
Format settings, Reference fra : 2 frames
Codec ID : V_MPEG4/ISO/AVC
Duration : 2 h 3 min
Bit rate mode : Variable
Bit rate : 36.6 Mb/s
Width : 1 920 pixels
Height : 1 080 pixels
Display aspect ratio : 16:9
Frame rate mode : Constant
Frame rate : 24.000 FPS
Color space : YUV
Chroma subsampling : 4:2:0
Bit depth : 8 bits
Scan type : Progressive
Bits/(Pixel*Frame) : 0.736
Stream size : 31.7 GiB (96%)
Title : La Grande Vadrouille (1966) Remux 1080p [50th Anniversary Edition, Remastered] Ukr/Fre | Sub Eng [Hurtom]
Language : Ukrainian
Default : Yes
Forced : Yes

Audio #1
ID : 2
Format : AC-3
Format/Info : Audio Coding 3
Commercial name : Dolby Digital
Codec ID : A_AC3
Duration : 2 h 3 min
Bit rate mode : Constant
Bit rate : 448 kb/s
Channel(s) : 6 channels
Channel layout : L R C LFE Ls Rs
Sampling rate : 48.0 kHz
Frame rate : 31.250 FPS (1536 SPF)
Bit depth : 16 bits
Compression mode : Lossy
Delay relative to video : 8 ms
Stream size : 396 MiB (1%)
Title : MVO ["Цікава ідея"] 5.1 | на замовлення Hurtom.com
Language : Ukrainian
Service kind : Complete Main
Default : Yes
Forced : Yes

Audio #2
ID : 3
Format : XLL
Format/Info : Digital Theater Systems
Commercial name : -HD Master Audio
Codec ID : A_DTS
Duration : 2 h 3 min
Bit rate mode : Variable
Bit rate : 856 kb/s
Channel(s) : 2 channels
Sampling rate : 48.0 kHz
Frame rate : 93.750 FPS (512 SPF)
Bit depth : 16 bits
Compression mode : Lossless
Delay relative to video : 1 ms
Stream size : 759 MiB (2%)
Title : Original -HD MA 2.0
Language : French
Default : No
Forced : No

Audio #3
ID : 4
Format : AC-3
Format/Info : Audio Coding 3
Commercial name : Dolby Digital
Codec ID : A_AC3
Duration : 2 h 3 min
Bit rate mode : Constant
Bit rate : 192 kb/s
Channel(s) : 2 channels
Channel layout : L R
Sampling rate : 48.0 kHz
Frame rate : 31.250 FPS (1536 SPF)
Bit depth : 16 bits
Compression mode : Lossy
Delay relative to video : 8 ms
Stream size : 170 MiB (1%)
Title : Original 2.0
Language : French
Service kind : Complete Main
Default : No
Forced : No

Text #1
ID : 5
Format : UTF-8
Codec ID : S_TEXT/UTF8
Codec ID/Info : UTF-8 Plain Text
Duration : 2 h 1 min
Bit rate : 3 b/s
Count of elements : 105
Stream size : 2.77 KiB (0%)
Title : Fre (Forced)
Language : French
Default : Yes
Forced : Yes

Text #2
ID : 6
Format : UTF-8
Codec ID : S_TEXT/UTF8
Codec ID/Info : UTF-8 Plain Text
Duration : 2 h 1 min
Bit rate : 44 b/s
Count of elements : 1235
Stream size : 39.9 KiB (0%)
Title : Eng (Full)
Language : English
Default : No
Forced : No

Menu
00:00:00.000 : :01
00:10:25.000 : :02
00:20:03.208 : :03
00:31:49.833 : :04
00:40:11.583 : :05
00:50:46.167 : :06
00:59:48.958 : :07
01:10:54.875 : :08
01:20:26.958 : :09
01:30:56.917 : :10
01:40:02.375 : :11
Скріншоти
Джерело: & інше
Особиста оцінка: 10 - без зайвих вагань рекомендую всім!


Авторський реліз (завантажувати можна без реєстрації)
 Трекер:    Зареєстрований   

Завантажити / скачати фільм українською



відео для новачків



 Зареєстрований:   2019-11-12 11:27
 Розмір:   32.98 GB 
 Оцінка фільму:   10/10 (Голосів: 18)
   
-Star-Lord- 
VIP


З нами з: 09.08.18
Востаннє: 28.09.20
Повідомлень: 2008

2018-12-21 17:16  
Українізований постер
https://posters.hurtom.com/albums/movies/grande.jpg

igor911 
Модератор відео


З нами з: 18.01.08
Востаннє: 28.09.20
Повідомлень: 15006

2018-12-21 17:52  
MakRA написано:
[Ukr,Fre] Sub Fre Remux 1080p

в заголовках теми та опису треба замінити на "Remux 1080p Ukr/Fre | Sub Fre"
Цитата:
Субтитри:
тип: пререндерні
формат: *.pjs

треба замінити на pgs

Додано через 3 хвилини 12 секунд:

ну і джерело "hqvideo" мабуть невірне - немає від них блурея/ремукса цього фільму, треба замінити або прибрати.

MakRA 
VIP


З нами з: 11.11.18
Востаннє: 28.09.20
Повідомлень: 1120

2018-12-21 17:55  
igor911
не пам"ятаю, звідки зтягував блурей, ремукс сам робив

igor911 
Модератор відео


З нами з: 18.01.08
Востаннє: 28.09.20
Повідомлень: 15006

2018-12-21 17:56  
тоді просто вкажи "& інше"
MakRA 
VIP


З нами з: 11.11.18
Востаннє: 28.09.20
Повідомлень: 1120

2018-12-21 18:00  
igor911
постер мабуть не буду міняти?

igor911 
Модератор відео


З нами з: 18.01.08
Востаннє: 28.09.20
Повідомлень: 15006

2018-12-21 18:39  
MakRA, за бажанням або як альтернативний під спойлер.

Додано через 16 хвилин 4 секунди:

MakRA написано:
постер мабуть не буду міняти?

до речі, обкладинка дещо вводить в оману недосвідченого користувача - вона від нового блурея 2016 року 50th Anniversary Edition з якіснішим AVC відеорядом з бітрейтом понад 36 Мб/с, а тут відеоряд зі старого видання 2008 року, тому мабуть поміняю їх місцями з укр.постером.

MakRA 
VIP


З нами з: 11.11.18
Востаннє: 28.09.20
Повідомлень: 1120

2018-12-21 18:55  
igor911
Ок, добре. Дякую!

Oleksa9 
VIP


З нами з: 17.05.12
Востаннє: 28.09.20
Повідомлень: 412

2019-01-08 08:49  
чяй, щьо, чюдово, чяс....
пробачьте -> даруйте

MakRA 
VIP


З нами з: 11.11.18
Востаннє: 28.09.20
Повідомлень: 1120

2019-11-12 11:30  
Реліз оновлено 12.11.2019 до Remux 1080p [50th Anniversary Edition, Remastered]

Додано через 1 хвилину 15 секунд:

+ 1080p

docentus 
Частий відвідувач


З нами з: 15.04.15
Востаннє: 28.09.20
Повідомлень: 31

2019-11-12 11:41  
Шикарне кіно!пам" ятаю в дитинстві кожне літо в селі в клубі крутили)
Argentum 
VIP


З нами з: 25.09.11
Востаннє: 28.09.20
Повідомлень: 259

2019-11-12 14:42  
Класика яка не втрачає свій шарм з роками ще й з чудовою озвучкою українською. Дякую.
MakRA 
VIP


З нами з: 11.11.18
Востаннє: 28.09.20
Повідомлень: 1120

2019-11-12 15:16  
Argentum
Будь ласка Happy

Ваш часовий пояс: GMT + 2 Години

Нова тема   Відповісти