Каратель / The Punisher (1989) AVC 2xUkr/Eng | sub Eng

Нові коментарі

Нова тема   Відповісти
Автор Повідомлення
staf777 
Відео Гуртом - підтримка та поширення
Відео Гуртом - підтримка та поширення


З нами з: 16.11.16
Востаннє: 16.12.19
Повідомлень: 3085

2018-12-20 16:33  
Каратель / The Punisher (1989) AVC 2xUkr/Eng | sub Eng

Каратель / The Punisher (1989) AVC 2xUkr/Eng | sub Eng


Жанр: бойовик, кримінальний, драма
Країна: Австралія, США



Кінокомпанія: New World Pictures, Marvel Entertainment

Режисер: Марк Ґолдблатт (Mark Goldblatt)
Актори: Дольф Лундґрен (Dolph Lundgren), Луі Ґоссетт мол. (Louis Gossett Jr.), Джероен Краббе (Jeroen Krabbe), Кім Міворі (Kim Miyori), Браян Маршалл (Bryan Marshall) та інші.

Сюжет:
Поліцейський Френк Кастл насилу пережив загибель сім'ї, його дружина і дочка згоріли живцем у підірваному автомобілі. Тепер він став суддею і катом 125 гангстерів, яких він розшукав і засудив до смерті. Його неможливо зупинити. Але в нього занадто багато ворогів ...


Тривалість: 01:29:05
Якість: AVC
Відео:
кодек:
розмір кадру: 1024x554
бітрейт: 2716 кб/с

Аудіо # 1:
мова: українська
переклад: двоголосий закадровий
кодек: 2.0
бітрейт: 192 кб/с
Інформація про озвучення
Студія «1+1» на замовлення телеканалу "1+1"

Ролі озвучили: Володимир Нечепоренко і Лариса Руснак
Аудіо # 2:
мова: українська
переклад: двоголосий закадровий
кодек: 2.0
бітрейт: 192 кб/с
примітка: фільм сильно порізали, тому присутні вставки від 1+1

Аудіо # 3:
мова: англійська
переклад: оригінал
кодек: 5.1
бітрейт: 384 кб/с

Субтитри:
мова: англійська
тип: програмні (м'які)
формат: *.srt

Info
[code]
General
Unique ID : 67296187246862368764514448118202739038 (0x32A0C633081EDCFCFC25ADF5DF47A95E)
Complete name : N:\Фільми AVC\Бойовик\The Punisher (1989) AVC [2xUkr][Eng][Hurtom].
Format :
Format version : Version 4 / Version 2
File size : 2.17 GiB
Duration : 1 h 29 min
Overall bit rate : 3 484 kb/s
Movie name : The Punisher (1989) AVC [2xUkr][Eng][Hurtom]
Encoded date : UTC 2018-12-23 20:06:28
Writing application : v24.0.0 ('Beyond The Pale') 64-bit
Writing library : libebml v1.3.6 + v1.4.9
Cover : Yes
Attachments : cover.jpg..jpg

Video
ID : 1
Format : AVC
Format/Info : Advanced Video Codec
Format profile : [email protected]
Format settings : CABAC / 10 Ref Frames
Format settings, CABAC : Yes
Format settings, ReFrames : 10 frames
Codec ID : V_MPEG4/ISO/AVC
Duration : 1 h 29 min
Bit rate : 2 716 kb/s
Width : 1 024 pixels
Height : 554 pixels
Display aspect ratio : 1.85:1
Frame rate mode : Constant
Frame rate : 23.976 (24000/1001) FPS
Color space : YUV
Chroma subsampling : 4:2:0
Bit depth : 8 bits
Scan type : Progressive
Bits/(Pixel*Frame) : 0.200
Stream size : 1.69 GiB (78%)
Title : Rip buy 0ptimus
Writing library : core 130 r2273 b3065e6
Encoding settings : cabac=1 / ref=10 / deblock=1:-3:-3 / analyse=0x3:0x113 / me=umh / subme=11 / psy=1 / psy_rd=1.00:0.20 / mixed_ref=1 / me_range=32 / chroma_me=1 / trellis=2 / 8x8dct=1 / cqm=0 / deadzone=21,11 / fast_pskip=0 / chroma_qp_offset=-3 / threads=4 / lookahead_threads=1 / sliced_threads=0 / nr=0 / decimate=0 / interlaced=0 / bluray_compat=0 / constrained_intra=0 / bframes=8 / b_pyramid=2 / b_adapt=2 / b_bias=0 / direct=3 / weightb=1 / open_gop=0 / weightp=2 / keyint=240 / keyint_min=23 / scenecut=40 / intra_refresh=0 / rc_lookahead=40 / rc=2pass / mbtree=0 / bitrate=2716 / ratetol=1.0 / qcomp=0.60 / qpmin=0 / qpmax=69 / qpstep=4 / cplxblur=20.0 / qblur=0.5 / vbv_maxrate=50000 / vbv_bufsize=50000 / nal_hrd=none / ip_ratio=1.40 / pb_ratio=1.30 / aq=1:1.00
Language : English
Default : Yes
Forced : Yes

Audio #1
ID : 2
Format : AC-3
Format/Info : Audio Coding 3
Codec ID : A_AC3
Duration : 1 h 29 min
Bit rate mode : Constant
Bit rate : 192 kb/s
Channel(s) : 2 channels
Channel positions : Front: L R
Sampling rate : 48.0 kHz
Frame rate : 31.250 FPS (1536 SPF)
Bit depth : 16 bits
Compression mode : Lossy
Stream size : 122 MiB (6%)
Title : [UA-DVO-1+1|
Language : Ukrainian
Service kind : Complete Main
Default : Yes
Forced : Yes

Audio #2
ID : 3
Format : AC-3
Format/Info : Audio Coding 3
Codec ID : A_AC3
Duration : 1 h 29 min
Bit rate mode : Constant
Bit rate : 192 kb/s
Channel(s) : 2 channels
Channel positions : Front: L R
Sampling rate : 48.0 kHz
Frame rate : 31.250 FPS (1536 SPF)
Bit depth : 16 bits
Compression mode : Lossy
Stream size : 122 MiB (6%)
Title : [Ukr-Mvo-ICTV]
Language : Ukrainian
Service kind : Complete Main
Default : No
Forced : No

Audio #3
ID : 4
Format : AC-3
Format/Info : Audio Coding 3
Codec ID : A_AC3
Duration : 1 h 29 min
Bit rate mode : Constant
Bit rate : 384 kb/s
Channel(s) : 6 channels
Channel positions : Front: L C R, Side: L R, LFE
Sampling rate : 48.0 kHz
Frame rate : 31.250 FPS (1536 SPF)
Bit depth : 16 bits
Compression mode : Lossy
Stream size : 245 MiB (11%)
Title : 5.1 @ 384 kbps
Language : English
Service kind : Complete Main
Default : No
Forced : No

Text
ID : 5
Format : UTF-8
Codec ID : S_TEXT/UTF8
Codec ID/Info : UTF-8 Plain Text
Duration : 1 h 21 min
Bit rate : 36 b/s
Count of elements : 956
Stream size : 21.8 KiB (0%)
Language : English
Default : No
Forced : No

Menu
00:00:00.000 : :Chapter 01
00:07:33.453 : :Chapter 02
00:15:58.832 : :Chapter 03
00:21:38.755 : :Chapter 04
00:29:20.759 : :Chapter 05
00:37:31.332 : :Chapter 06
00:43:20.514 : :Chapter 07
00:50:53.467 : :Chapter 08
00:58:21.915 : :Chapter 09
01:07:28.461 : :Chapter 10
01:14:21.039 : :Chapter 11
01:21:31.052 : :Chapter 12



Звукозапис з ТБ: karvai0, krigg070
Синхронізація звуку: taraskill1, robotron005

Джерело: &
Особиста оцінка: 8 - мені сподобалося
Каратель / The Punisher (1989) AVC 2xUkr/Eng | sub Eng


Срібний реліз (на рейтинг впливає 50% завантаженого)
 Трекер:    Зареєстрований   

Завантажити / скачати фільм українською



відео для новачків



 Зареєстрований:   2018-12-24 10:21
 Розмір:   2.17 GB 
 Оцінка фільму:   8.4/10 (Голосів: 14)
   
Інші релізи
   Каратель / The Punisher (1989) Remux 1080p 2xUkr/Eng | sub Eng staf777  4 / 0   20.15 GB   2018-12-20 13:23 
   Каратель / The Punisher (1989) 1080p H.265 2xUkr/Eng | Sub Eng -Star-Lord-  0 / 0   5.08 GB   2018-09-02 01:32 
   Каратель / The Punisher (1989) 2xUkr/Eng taraskill1  4 / 0   1.58 GB   2017-07-23 15:02 
Toster1234 
VIP


З нами з: 17.10.16
Востаннє: 15.12.19
Повідомлень: 273

2018-12-20 17:06  
Цікаво, що могли на знімати під рейтингом 15+ по фрашизі Карателя
bot 
робот


З нами з: 30.09.07
Востаннє: 26.05.05
Повідомлень: 22673

2018-12-24 10:20  
Тему перенесено з Анонси релізів до форуму Фільми


staf777

Ваш часовий пояс: GMT + 2 Години

Нова тема   Відповісти