Смерть на Нілі / Death on the Nile (1978) Remux 1080p Ukr/Eng | Sub Eng

Нові коментарі

Нова тема   Відповісти
Автор Повідомлення
MakRA 
VIP


З нами з: 11.11.18
Востаннє: 30.09.20
Повідомлень: 1120

2018-12-20 15:04  
Смерть на Нілі / Death on the Nile (1978) Remux 1080p Ukr/Eng | Sub Eng

Смерть на Нілі / Death on the Nile (1978) Remux 1080p Ukr/Eng | Sub Eng


Жанр: кримінальний, драма, детектив, пригодницький
Країна: Велика Британія



Кінокомпанія: EMI Films, Mersham Productions Ltd.
Режисер: Джон Гіллермін [John Guillermin]
Актори: Пітер Устінов [Peter Ustinov], Меггі Сміт [Maggie Smith], Бетті Девіс [Bette Davis], Міа Ферроу [Mia Farrow], Анджела Ленсбері [Angela Lansbury], Джейн Біркін [Jane Birkin], Джон Фінч [Jon Finch], Олівія Хассі [Olivia Hussey], Джордж Кеннеді [George Kennedy], Саймон Маккоркіндейл [Simon MacCorkindale]

Сюжет:
Події відбуваються на розкішному круїзному лайнері. Під час подорожі по Нілу від рук невідомого вбивці загинула багата спадкоємиця Лінн Ріджуей. Основна підозра знаменитого детектива Еркюля Пуаро, який опинився на судні, падає на колишню подругу мільйонерки, котра мала дуже вагомий мотив: убита недавно відбила її нареченого. Крім головної підозрюваної, на кораблі знаходиться багато інших пасажирів, які вельми неприхильно ставилися до Лінн. Відповідно, кожен може бути причетним до злочину, в той же час у всіх підозрюваних є алібі. Але розумний і уважний Пуаро, як і належить, дізнається правду. І навіть той факт, що детектив знаходиться на заслуженому відпочинку, не завадить йому проявити професійні якості. Допомагати Еркюлю в цій складній і заплутаній справі буде його давній друг полковник Рейес.


Тривалість: 02:20:41
Якість: Remux 1080p
Відео:
кодек:
розмір кадру: 1920 х 1080
бітрейт: 25,9 Мбіт/с

Аудіо # 1:
мова: українська
переклад: двоголосий закадровий
кодек: 2.0
бітрейт: 192 кб/с

Аудіо # 2:
мова: англійська
переклад: оригінал
кодек: 2.0
бітрейт: 192 кб/с

Аудіо # 3:
мова: англійська
переклад: оригінал
кодек: -HD MA 2.0
бітрейт: 1536 кб/с

Джерело озвучення:


Субтитри:
мова: англійська
тип: пререндерні
формат: *.pgs
Info
General
Unique ID : 89251254751976112098153738962548298931 (0x43252A99DA21EC29965C4288FD1C14B3)
Complete name : E:\Нова папка\Death on the Nile (1978) [Ukr,2хEng] Sub Eng Remux 1080p [Hurtom].
Format :
Format version : Version 4 / Version 2
File size : 27.4 GiB
Duration : 2 h 20 min
Overall bit rate mode : Variable
Overall bit rate : 27.9 Mb/s
Encoded date : UTC 2018-12-20 10:14:28
Writing application : v25.0.0 ('Prog Noir') 64-bit
Writing library : libebml v1.3.6 + v1.4.9

Video
ID : 1
Format : AVC
Format/Info : Advanced Video Codec
Format profile : [email protected]
Format settings, CABAC : Yes
Format settings, RefFrames : 4 frames
Codec ID : V_MPEG4/ISO/AVC
Duration : 2 h 20 min
Bit rate mode : Variable
Bit rate : 25.9 Mb/s
Maximum bit rate : 31.0 Mb/s
Width : 1 920 pixels
Height : 1 080 pixels
Display aspect ratio : 16:9
Frame rate mode : Constant
Frame rate : 23.976 (24000/1001) FPS
Color space : YUV
Chroma subsampling : 4:2:0
Bit depth : 8 bits
Scan type : Progressive
Bits/(Pixel*Frame) : 0.521
Stream size : 25.5 GiB (93%)
Default : Yes
Forced : No

Audio #1
ID : 2
Format : AC-3
Format/Info : Audio Coding 3
Format settings, Endianness : Big
Codec ID : A_AC3
Duration : 2 h 20 min
Bit rate mode : Constant
Bit rate : 192 kb/s
Channel(s) : 2 channels
Channel positions : Front: L R
Sampling rate : 48.0 kHz
Frame rate : 31.250 FPS (1536 SPF)
Bit depth : 16 bits
Compression mode : Lossy
Stream size : 193 MiB (1%)
Service kind : Complete Main
Default : Yes
Forced : No

Audio #2
ID : 3
Format : AC-3
Format/Info : Audio Coding 3
Format settings, Endianness : Big
Codec ID : A_AC3
Duration : 2 h 20 min
Bit rate mode : Constant
Bit rate : 192 kb/s
Channel(s) : 2 channels
Channel positions : Front: L R
Sampling rate : 48.0 kHz
Frame rate : 31.250 FPS (1536 SPF)
Bit depth : 16 bits
Compression mode : Lossy
Stream size : 193 MiB (1%)
Language : English
Service kind : Complete Main
Default : No
Forced : No

Audio #3
ID : 4
Format :
Format/Info : Digital Theater Systems
Format profile : MA / Core
Mode : 16
Format settings, Endianness : Big
Codec ID : A_DTS
Duration : 2 h 20 min
Bit rate mode : Variable / Constant
Bit rate : 1 536 kb/s / 1 509 kb/s
Channel(s) : 2 channels
Channel positions : Front: L R
Sampling rate : 48.0 kHz
Frame rate : 93.750 FPS (512 SPF)
Bit depth : 24 bits
Compression mode : Lossless / Lossy
Stream size : 1.54 GiB (6%)
Language : English
Default : No
Forced : No

Text
ID : 5
Format : PGS
Muxing mode : zlib
Codec ID : S_HDMV/PGS
Codec ID/Info : Picture based subtitle format used on BDs/HD-DVDs
Duration : 2 h 15 min
Bit rate : 31.7 kb/s
Count of elements : 3416
Stream size : 30.7 MiB (0%)
Language : English
Default : Yes
Forced : No
Скріншоти





Джерело: &
Особиста оцінка: 10 - без зайвих вагань рекомендую всім!


Золотий реліз (завантажене не впливає на рейтинг)
 Трекер:    Зареєстрований   

Завантажити / скачати фільм українською



відео для новачків



 Зареєстрований:   2018-12-20 23:12
 Розмір:   27.39 GB 
 Оцінка фільму:   9.9/10 (Голосів: 7)
   
Інші релізи
igor911 
Модератор відео


З нами з: 18.01.08
Востаннє: 30.09.20
Повідомлень: 15008

2018-12-20 18:05  
MakRA, вітаю з першим релізом.

Зауваження по релізу (файлу):
- дуже бажано вказувати мову доріжки (в даному випадку не вказано для української) та підписувати її (наприклад, "DVO [1+1]")
- не варто виставляти англ.саби за замовчанням (тут Default : Yes)
Ці зміни можна внести в без перемуксування в розділі "Редактор заголовків" MKVToolNix'а.

kryk-v.ya. 
Попереджень: 1
Попереджень: 1 


З нами з: 14.02.14
Востаннє: 30.09.20
Повідомлень: 2253

2018-12-20 19:01  
вітаю з першим...
перегляну з задоволенням...обожнюю цю серію детективів з Устіновим.
але робіть в БДМВ...будь-ласка.
Wide grin

MakRA 
VIP


З нами з: 11.11.18
Востаннє: 30.09.20
Повідомлень: 1120

2018-12-20 19:17  
kryk-v.ya.
Дякую) доберуся до ПК, виправлю недоліки, а то в мене взагалі перший.

Додано через 49 секунд:

kryk-v.ya.
За БДМВ подумаю.

Ваш часовий пояс: GMT + 2 Години

Нова тема   Відповісти