Агент Джонні Інгліш: Нова місія / Johnny English Strikes Again (2018) 1080p Ukr/Eng | Sub Eng

Нові коментарі

Нова тема   Відповісти
Автор Повідомлення
staf777 
Відео Гуртом - підтримка та поширення
Відео Гуртом - підтримка та поширення


З нами з: 16.11.16
Востаннє: 19.05.19
Повідомлень: 2356

2018-12-20 10:46  
Агент Джонні Інгліш: Нова місія / Johnny English Strikes Again (2018) 1080p Ukr/Eng | Sub Eng

Агент Джонні Інгліш: Нова місія / Johnny English Strikes Again (2018) 1080p Ukr/Eng | Sub Eng


Жанр: комедія, екшн, пригодницький
Країна: Велика Британія, Франція, США



Кінокомпанія: Universal Pictures, Studio Canal, Working Title Films
Режисер: Девід Керр
Актори: Ровен Аткінсон, Емма Томпсон, Ольга Куриленко, Джейк Лесі, Бен Міллер, Міранда Геннессі, Адам Джеймс, Піппа Беннетт-Ворнер, Ірена Тишана, Джеймс Ілс

Сюжет:
Безглузді пригоди найдурнішого британського шпигуна в історії. За сюжетом, напередодні найважливішої зустрічі лідерів провідних держав світу, Британія зазнала потужної хакерської атаки - паралізовано рух транспорту, робота лікарень і держустанов, а секрети служби МІ7 стали надбанням громадськості. Щоб врятувати честь країни, керівництво розвідки змушене звернутися до агентів, які давно вийшли на пенсію, в тому числі і до Джонні Інгліша, який нині викладає географію в школі. У пошуках хакера опальний шпигун, який раніше неодноразово рятував честь Корони, занурюється в світ інформаційних технологій, віртуальної реальності та штучного інтелекту. При цьому він володіє лише старовинними шпигунськими засобами часів холодної війни…


Тривалість: 01:28:32
Якість: 1080p
Відео:
кодек:
розмір кадру: 1920x808
бітрейт: 10,9 Mб/с

Аудіо # 1:
мова: українська
переклад: професійний дубльований
кодек: 2.0
бітрейт: 192 кб/с

Аудіо # 2:
мова: англійська
переклад: оригінал
кодек: 5.1
бітрейт: 1509 кб/с

Субтитри # 1-2:
мова: англійська (повні, SDH)
тип: програмні (м'які)
формат: *.srt
Info
General
Unique ID : 201000537136616531039535909027065660645 (0x97374B9ACEDA0CA91807654DE44884E5)
Complete name : N:\Фільми HD\Комедія\Johnny English Strikes Again (2018) 1080p [UKR_ENG] [Hurtom].
Format :
Format version : Version 4 / Version 2
File size : 7.76 GiB
Duration : 1 h 28 min
Overall bit rate : 12.5 Mb/s
Movie name : Johnny English Strikes Again (2018) 1080p [UKR_ENG] [Hurtom]
Encoded date : UTC 2018-12-20 07:29:39
Writing application : v24.0.0 ('Beyond The Pale') 64-bit
Writing library : libebml v1.3.6 + v1.4.9
Cover : Yes
Attachments : cover

Video
ID : 1
Format : AVC
Format/Info : Advanced Video Codec
Format profile : [email protected]
Format settings : CABAC / 5 Ref Frames
Format settings, CABAC : Yes
Format settings, ReFrames : 5 frames
Codec ID : V_MPEG4/ISO/AVC
Duration : 1 h 28 min
Bit rate : 10.9 Mb/s
Width : 1 920 pixels
Height : 808 pixels
Display aspect ratio : 2.40:1
Frame rate mode : Constant
Frame rate : 23.976 (24000/1001) FPS
Color space : YUV
Chroma subsampling : 4:2:0
Bit depth : 8 bits
Scan type : Progressive
Bits/(Pixel*Frame) : 0.293
Stream size : 6.70 GiB (86%)
Writing library : core 157 r2932+2 (master: 303c484 / tmod: 1b88d0a) [X86_64]
Encoding settings : cabac=1 / ref=5 / deblock=1:-3:-3 / analyse=0x3:0x113 / me=umh / subme=11 / psy=1 / psy_rd=1.05:0.10 / mixed_ref=1 / me_range=48 / chroma_me=1 / trellis=2 / 8x8dct=1 / cqm=0 / deadzone=6,6 / fast_pskip=0 / chroma_qp_offset=-3 / threads=26 / lookahead_threads=6 / sliced_threads=0 / nr=0 / decimate=0 / interlaced=0 / bluray_compat=0 / constrained_intra=0 / bframes=11 / b_pyramid=2 / b_adapt=2 / b_bias=0 / direct=3 / weightb=1 / open_gop=0 / weightp=2 / keyint=250 / keyint_min=23 / scenecut=40 / intra_refresh=0 / rc_lookahead=60 / rc=2pass / mbtree=0 / bitrate=10896 / ratetol=1.0 / qcomp=0.70 / qpmin=0 / qpmax=69 / qpstep=4 / cplxblur=20.0 / qblur=0.5 / vbv_maxrate=50000 / vbv_bufsize=62500 / nal_hrd=none / filler=0 / ip_ratio=1.10 / pb_ratio=1.10 / aq=3:0.75
Language : English
Default : Yes
Forced : No

Audio #1
ID : 2
Format : AC-3
Format/Info : Audio Coding 3
Codec ID : A_AC3
Duration : 1 h 28 min
Bit rate mode : Constant
Bit rate : 192 kb/s
Channel(s) : 2 channels
Channel positions : Front: L R
Sampling rate : 48.0 kHz
Frame rate : 31.250 FPS (1536 SPF)
Bit depth : 16 bits
Compression mode : Lossy
Stream size : 122 MiB (2%)
Title : 2.0 @ 192 kbps
Language : Ukrainian
Service kind : Complete Main
Default : Yes
Forced : Yes

Audio #2
ID : 3
Format :
Format/Info : Digital Theater Systems
Codec ID : A_DTS
Duration : 1 h 28 min
Bit rate mode : Constant
Bit rate : 1 509 kb/s
Channel(s) : 6 channels
Channel positions : Front: L C R, Side: L R, LFE
Sampling rate : 48.0 kHz
Frame rate : 93.750 FPS (512 SPF)
Bit depth : 24 bits
Compression mode : Lossy
Stream size : 956 MiB (12%)
Language : English
Default : No
Forced : No

Text #1
ID : 4
Format : UTF-8
Codec ID : S_TEXT/UTF8
Codec ID/Info : UTF-8 Plain Text
Duration : 1 h 22 min
Bit rate : 57 b/s
Count of elements : 1020
Stream size : 34.4 KiB (0%)
Title : English
Language : English
Default : No
Forced : No

Text #2
ID : 5
Format : UTF-8
Codec ID : S_TEXT/UTF8
Codec ID/Info : UTF-8 Plain Text
Duration : 1 h 22 min
Bit rate : 66 b/s
Count of elements : 1301
Stream size : 40.5 KiB (0%)
Title : English (SDH)
Language : English
Default : No
Forced : No

Menu
00:00:00.000 : en:00:00:00.000
00:05:06.681 : en:00:05:06.681
00:09:05.378 : en:00:09:05.378
00:13:14.794 : en:00:13:14.794
00:19:22.370 : en:00:19:22.370
00:21:31.832 : en:00:21:31.832
00:26:41.975 : en:00:26:41.975
00:32:31.241 : en:00:32:31.241
00:34:48.086 : en:00:34:48.086
00:39:49.429 : en:00:39:49.429
00:45:49.121 : en:00:45:49.121
00:51:22.204 : en:00:51:22.204
00:54:31.852 : en:00:54:31.852
00:58:58.201 : en:00:58:58.201
01:02:58.441 : en:01:02:58.441
01:08:21.597 : en:01:08:21.597
01:11:40.963 : en:01:11:40.963
01:15:03.416 : en:01:15:03.416
01:20:54.808 : en:01:20:54.808
01:23:52.527 : en:01:23:52.527






Джерело: &
Особиста оцінка: 8 - мені сподобалося
Агент Джонні Інгліш: Нова місія / Johnny English Strikes Again (2018) 1080p Ukr/Eng | Sub Eng Агент Джонні Інгліш: Нова місія / Johnny English Strikes Again (2018) 1080p Ukr/Eng | Sub Eng




 Трекер:    Зареєстрований   

Завантажити / скачати фільм українською



відео для новачків



 Зареєстрований:   2018-12-20 10:46
 Розмір:   7.76 GB 
 Оцінка фільму:   9.1/10 (Голосів: 56)
   
staf777 
Відео Гуртом - підтримка та поширення
Відео Гуртом - підтримка та поширення


З нами з: 16.11.16
Востаннє: 19.05.19
Повідомлень: 2356

2018-12-20 11:34  
Прикольний актор Роуен Аткінсон - розвеселить і мертвого ... один із не багатьох на якого просто дивися і вже на обличчі посмішка як на мене в такому жанрі таких знаю Луї де Фюнес та Джим Керрі осталіні курять в сторонні тобто плавають не глибоко
lightinsight 
Свій


З нами з: 07.04.14
Востаннє: 19.05.19
Повідомлень: 110

2018-12-20 13:47  
staf777
О так! Happy

thestorozhuk 
Свій


З нами з: 29.11.12
Востаннє: 28.04.19
Повідомлень: 51

2018-12-20 14:31  
staf777
Для мене фаворити Леслі Нільсен (серія фільмів "Голий Пістолет"), Джим Керрі та Едді Мерфі (скоріше в старих роботах). Чеві Чейз у фільмах "Флетч" та "Флетч живий" досить добре себе показав в якості соло. В "Спогади людини-невидимки" теж добре зіграв. Але я б не сказав, що прямо комедія. Скоріше трагекомедія. Ще можна відзначити: Джеймс Белуші, Білл Мюррей, Ден Екройд, Стів Мартін та інш. Знамениті актори того часу (маю на увазі 80-90-ті роки) знімались в чудових сольних комедіях (особливо американські фільми та актори). Тож список може бути більшим)).

staf777 
Відео Гуртом - підтримка та поширення
Відео Гуртом - підтримка та поширення


З нами з: 16.11.16
Востаннє: 19.05.19
Повідомлень: 2356

2018-12-20 14:52  
thestorozhuk
я ж кажу як на мене на смак і колір всі фломастери різні - у кожного своя думка але згоден з Вами що список можна написати більш чим три актора - просто згадав тільки тих яким більш симпатизую Happy

wolfing1981 
Новенький


З нами з: 12.04.17
Востаннє: 15.05.19
Повідомлень: 9

2018-12-20 17:42  
маячня!
viktor.w.karpenko 
Новенький


З нами з: 12.10.17
Востаннє: 18.05.19
Повідомлень: 5

2018-12-20 22:26  
З рейтингом imdb згоден
https://www.imdb.com/title/tt6921996/
Здебільшого завядки ностальгії за мр.Біном

O_omarella! 
Свій


З нами з: 14.06.13
Востаннє: 11.05.19
Повідомлень: 116

2019-01-05 12:30  
Для шануваотнмків Містера Біна, але мені фільм сподобався, ржав з деяких моментів.
ryder2 
Новенький


З нами з: 02.11.17
Востаннє: 29.03.19
Повідомлень: 6

2019-01-10 14:40  
Remux буде ?
BABELAN 
Частий відвідувач


З нами з: 17.01.19
Востаннє: 19.05.19
Повідомлень: 38

2019-01-20 11:41  
ryder2
Так сьогодні вечором

hetzendorf 
Відео Гуртом - підтримка та поширення
Відео Гуртом - підтримка та поширення


З нами з: 23.07.15
Востаннє: 20.05.19
Повідомлень: 2150

2019-01-23 00:00  
Просто блискуча пародія на шпигунські фільми плюс новітні технології! Ну й Рован Аткінсон ак завжди на висоті!
10/10

Ваш часовий пояс: GMT + 2 Години

Нова тема   Відповісти