Том і Гек / Tom and Huck (1995) 720p Ukr/Eng | sub Eng

Нові коментарі

Нова тема   Відповісти
Автор Повідомлення
Anonymous 







2018-12-20 00:43  
Том і Гек / Tom and Huck (1995) 720p Ukr/Eng | sub Eng

Том і Гек / Tom and Huck (1995) 720p Ukr/Eng | sub Eng


Жанр: пригодницький, комедія, драма, сімейний
Країна: США



Кінокомпанія: Walt Disney Pictures, Painted Fence Productions
Режисер: Пітер Хьюіт (Peter Hewitt)
Актори: Джонатан Тейлор Томас (Jonathan Taylor Thomas), Бред Ренфро (Brad Renfro), Ерік Швейг (Eric Schweig), Чарльз Роккет (Charles Rocket), Емі Райт (Amy Wright), Майкл МакШейн (Michael McShane), Меріен Селдес (Marian Seldes)

Сюжет:
Сюжет:
Від їх витівок налякана вся округа. Кішки і собаки розбігаються, господині замикають вікна і двері, малюки плачуть. Ні, це не монстри із страшної казки вийшли на вулицю міста. Просто нас чекають нові зустрічі з Томом Сойєром і Геком Фінном.


Тривалість: 01:31:49
Якість: 720p
Відео:
кодек:
розмір кадру: 1280 х 540
бітрейт: 3986 кб/с

Аудіо # 1:
мова: українська
переклад: двоголосий закадровий
кодек: 2.0
бітрейт: 192 кб/с

Аудіо # 2:
мова: англійська
переклад: оригінал
кодек: 5.1
бітрейт: 384 кб/с

Субтитри:
мова: англійська
тип: програмні (м'які)
формат: *.srt
Info
General
Unique ID : 32988584043195369120258000251352473388 (0x18D15EC4530B613A4197567F8C535F2C)
Complete name : E:\films\Tom and Huck (1995) 720p [ukr.eng] Hurtom.
Format :
Format version : Version 4 / Version 2
File size : 2.89 GiB
Duration : 1 h 31 min
Overall bit rate : 4 500 kb/s
Movie name : Tom and Huck (1995)
Encoded date : UTC 2018-12-19 21:05:10
Writing application : v21.0.0 ('Tardigrades Will Inherit The Earth') 64-bit
Writing library : libebml v1.3.5 + v1.4.8

Video
ID : 1
Format : AVC
Format/Info : Advanced Video Codec
Format profile : [email protected]
Format settings, CABAC : No
Format settings, ReFrames : 2 frames
Format settings, GOP : N=1
Codec ID : V_MPEG4/ISO/AVC
Duration : 1 h 31 min
Bit rate : 3 986 kb/s
Width : 1 280 pixels
Height : 540 pixels
Display aspect ratio : 2.40:1
Frame rate mode : Constant
Frame rate : 23.976 (24000/1001) FPS
Color space : YUV
Chroma subsampling : 4:2:0
Bit depth : 8 bits
Scan type : Progressive
Bits/(Pixel*Frame) : 0.240
Stream size : 2.56 GiB (89%)
Title : Tom and Huck (1995)
Language : English
Default : Yes
Forced : No
Color range : Limited
Color primaries : BT.709
Transfer characteristics : BT.709
Matrix coefficients : BT.709

Audio #1
ID : 2
Format : AC-3
Format/Info : Audio Coding 3
Mode extension : CM (complete main)
Format settings, Endianness : Big
Codec ID : A_AC3
Duration : 1 h 31 min
Bit rate mode : Constant
Bit rate : 128 kb/s
Channel(s) : 2 channels
Channel positions : Front: L R
Sampling rate : 48.0 kHz
Frame rate : 31.250 FPS (1536 spf)
Bit depth : 16 bits
Compression mode : Lossy
Stream size : 84.1 MiB (3%)
Title : K1 channel
Language : Ukrainian
Default : Yes
Forced : No

Audio #2
ID : 3
Format : AC-3
Format/Info : Audio Coding 3
Mode extension : CM (complete main)
Format settings, Endianness : Big
Codec ID : A_AC3
Duration : 1 h 31 min
Bit rate mode : Constant
Bit rate : 384 kb/s
Channel(s) : 6 channels
Channel positions : Front: L C R, Side: L R, LFE
Sampling rate : 48.0 kHz
Frame rate : 31.250 FPS (1536 spf)
Bit depth : 16 bits
Compression mode : Lossy
Stream size : 252 MiB (9%)
Title : Original / iTunes
Language : English
Default : No
Forced : No

Text
ID : 4
Format : UTF-8
Codec ID : S_TEXT/UTF8
Codec ID/Info : UTF-8 Plain Text
Duration : 1 h 27 min
Bit rate : 56 b/s
Count of elements : 1025
Stream size : 36.1 KiB (0%)
Language : English
Default : No
Forced : No
Скріншоти





За українську доріжку дякую urij546724 та SweetN

Джерело: &


Срібний реліз (на рейтинг впливає 50% завантаженого)
 Трекер:    Зареєстрований   

Завантажити / скачати фільм українською



відео для новачків



 Зареєстрований:   2018-12-20 00:43
 Розмір:   2.89 GB 
 Оцінка фільму:   10/10 (Голосів: 4)
   
Інші релізи
   Том і Гек / Tom and Huck (1995) 720p 2xUkr/Eng | Sub Eng -_-B_Е_N_D_E_R-_-  0 / 0   3.05 GB   2020-06-30 16:20 
   Том і Гек / Tom and Huck (1995) Ukr/Eng urij546724  1 / 0   1.45 GB   2012-07-11 20:24 
   Том і Гек / Tom and Huck (1995) 1080i Ukr/Eng urij546724  0 / 0   4.98 GB   2012-07-10 21:20 
Ваш часовий пояс: GMT + 2 Години

Нова тема   Відповісти