Northrend - Winterborn (2018) [] | Pagan Metal / Black Metal

Нові коментарі

Нова тема   Відповісти
Автор Повідомлення
dark_inwhite 
VIP


З нами з: 15.09.16
Востаннє: 23.07.19
Повідомлень: 362

2018-12-19 20:27  
Northrend - Winterborn (2018) [] | Pagan Metal / Black Metal

Northrend - Winterborn (2018) [] | Pagan Metal / Black Metal


Стиль: Pagan Metal / Black Metal
Країна, місто: Україна, Київ
Видавець: Гурт
Виконавці:
Dredmor - вокал, гітара
Vulpes - гітара
Maximus - бас-гітара
Unholy - ударні
Пісні:
    01. Frozen Wastes
    02. Also Sprach Zarathustra
    03. Pagan Horde
    04. Outbreak
    05. Морок (Gloom)
    06. Elder Runes
    07. Winterborn
    08. Gardarika
    09. Последнее пламя (The Last Flame)
    10. Руїни (Ruins)
    11. A Land Forgotten
    12. White Legacy

Тривалість: 00:48:39
Мова: англійська (1-4,6-8,11,12), українська (5,10), російська (9)
Аудіо-кодек:
Бітрейт: 1531 - 1966 кб/с
Джерело: bandcamp
DRM
foobar2000 1.4 / Dynamic Range Meter 1.1.1
log date: 2018-12-19 19:20:38

--------------------------------------------------------------------------------
Analyzed: Northrend / Winterborn
--------------------------------------------------------------------------------

DR Peak RMS Duration Track
--------------------------------------------------------------------------------
DR6 -0.10 dB -6.79 dB 7:00 01-Frozen Wastes
DR6 -0.10 dB -7.04 dB 3:35 02-Also Sprach Zarathustra
DR7 -0.10 dB -8.03 dB 2:19 03-Pagan Horde
DR6 -0.10 dB -7.02 dB 2:59 04-Outbreak
DR7 -0.10 dB -7.30 dB 3:21 05-Морок (Gloom)
DR6 0.00 dB -6.08 dB 5:15 06-Elder Runes
DR6 0.00 dB -7.30 dB 6:03 07-Winterborn
DR6 -0.10 dB -6.99 dB 4:10 08-Gardarika
DR6 -0.10 dB -7.11 dB 2:21 09-Последнее Пламя (The Last Flame)
DR5 -0.10 dB -6.61 dB 3:27 10-Руїни (Ruins)
DR9 -0.13 dB -12.91 dB 2:46 11-A Land Forgotten
DR6 -0.10 dB -6.91 dB 5:30 12-White Legacy
--------------------------------------------------------------------------------

Number of tracks: 12
Official DR value: DR6

Samplerate: 48000 Hz
Channels: 2
Bits per sample: 24
Bitrate: 1902 kbps
Codec:
================================================================================
Спектри


Срібний реліз (на рейтинг впливає 50% завантаженого)
 Трекер:    Зареєстрований   

Завантажити / скачати українську музику



відео для новачків



 Зареєстрований:   2018-12-19 20:27
 Розмір:   664 MB 
 Оцінка музики:   7.8/10 (Голосів: 4)
   
Ваш часовий пояс: GMT + 2 Години

Нова тема   Відповісти