Пірати Карибського моря. Колекція / Pirates of the Caribbean: Collection (2003/2006/2007/2011/2017) 1080p H.265 Ukr/Eng | Sub Ukr/Eng

Нові коментарі

Нова тема   Відповісти
Автор Повідомлення
Anonymous 







2018-12-19 17:41  
Пірати Карибського моря. Колекція / Pirates of the Caribbean: Collection (2003/2006/2007/2011/2017) 1080p H.265 Ukr/Eng | Sub Ukr/Eng

Пірати Карибського моря. Колекція / Pirates of the Caribbean: Collection (2003/2006/2007/2011/2017) 1080p H.265 Ukr/Eng | Sub Ukr/Eng

1. 2. 3. 4. 5.

1. Пірати Карибського Моря: Прокляття чорної перлини (2003) / Pirates of the Caribbean: The Curse of the Black Pearl (2003) 1080p H.265 3хUkr/Eng | Sub Ukr/Eng
Пірати Карибського Моря: Прокляття чорної перлини (2003) / Pirates of the Caribbean: The Curse of the Black Pearl (2003) 1080p H.265 3хUkr/Eng | Sub Ukr/Eng

Пірати Карибського моря. Колекція / Pirates of the Caribbean: Collection (2003/2006/2007/2011/2017) 1080p H.265 Ukr/Eng | Sub Ukr/Eng


Жанр: фентезі, бойовик, пригоди, пригодницький, комедія
Країна: США
Кінокомпанія: Walt Disney Pictures, Jerry Bruckheimer Films, Infinitum Nihil
Режисер: Гор Вербінські / Gore Verbinski
Актори: Джонні Депп / Jonny Depp, Орландо Блум / Orlando Bloom, Кіра Найтлі / Keira Knightley, Джеффрі Раш / Geoffrey Rush, Джек Девенпорт / Jack Davenport, Джонатан Прайс / Jonathan Pryce, Лі Аренберг / Lee Arenberg

Сюжет:
XVIII століття. Карибське море. Серед жителів Ямайки ходять чутки про якесь жахливе прокляття, яке спіткало команду піратського корабля «Чорна перлина».

Ексцентричний пірат Джек Спарроу прибуває в місто Порт-Рояль, щоб викрасти корабель, навербувати команду і почати піратські розбишатства. Однак після того, як він рятує доньку губернатора Порт-Рояля, Елізабет Свон (що впала у море з гори), гвардійці ловлять його й заарештовують. Ще до того, як потрапити у в'язницю Джек, рятуючись від військовиків, знайомиться з Віллом Тернером, ковалем шляхетного походженням, що закоханий в Елізабет.

Однієї ночі місто атакує той самий легендарний корабель «Чорна перлина». Пірати починають грабунки у місті та викрадають Елізабет — адже вона має таємничий золотий медальйон, здатний звільнити їх від прокляття. Губернатору й його людям не вдається нічого зробити, щоб знайти й врятувати Елізабет. Тоді всупереч закону, Вілл визволяє Джека, щоб разом з ним знайти «Перлину» і врятувати Елізабет. Він ще не знає, що це не лише затягне його у вир захоплюючих пригод, але й допоможе йому розкрити таємницю свого минулого.


Тривалість: 02:23:10
Якість:

Відео:
кодек: H.265 (HEVC)
розмір кадру: 1920 x 818
бітрейт: 7 560 кб/с
бітова глибина: 10 біт

Увага! Перед завантаженням переконайтесь, що ваш пристрій відтворення (та/або ПЗ) підтримує H.265 (HEVC)

Аудіо # 1:
мова: українська
переклад: професійний дубльований
кодек: 2.0
бітрейт: 1510 кб/с

Аудіо # 2:
мова: українська
переклад: багатоголосий закадровий
кодек: AC-3 2.0
бітрейт: 192 кб/с

Аудіо # 3:
мова: українська
переклад: багатоголосий закадровий
кодек: AC-3 2.0
бітрейт: 192 кб/с

Аудіо # 4:
мова: англійська
переклад: оригінал
кодек: 5.1
бітрейт: 1510 кб/с

Субтитри # 1-2: (Forced, Full)
мова: українська
тип: програмні (м'які)
формат: *.srt

Субтитри # 3: (Full)
мова: англійська
тип: програмні (м'які)
формат: *.srt


Info
Код:
General
Unique ID                                : 20291343296852602987509663622144827525 (0xF43F8770F964EE74669B612E7ADA085)
Complete name                            : 1. Pirates of the Caribbean. The Curse of the Black Pearl (2003) 1080p H.265 [3xUKR_ENG] [Hurtom].
Format                                   :
Format version                           : Version 4
File size                                : 11.0 GiB
Duration                                 : 2 h 23 min
Overall bit rate                         : 11.0 Mb/s
Movie name                               : Пірати Карибського Моря: Прокляття чорної перлини (2003) / Pirates of the Caribbean: The Curse of the Black Pearl (2003)
Encoded date                             : UTC 2020-07-01 18:26:54
Writing application                      : v20.0.0 ('I Am The Sun') 64-bit
Writing library                          : libebml v1.3.5 + v1.4.8
Cover                                    : Yes
Attachments                              : cover

Video
ID                                       : 1
Format                                   : HEVC
Format/Info                              : High Efficiency Video Coding
Format profile                           : Main [email protected]@High
Codec ID                                 : V_MPEGH/ISO/HEVC
Duration                                 : 2 h 23 min
Bit rate                                 : 7 560 kb/s
Width                                    : 1 920 pixels
Height                                   : 818 pixels
Display aspect ratio                     : 2.35:1
Frame rate mode                          : Constant
Frame rate                               : 23.976 (23976/1000) FPS
Original frame rate                      : 23.976 (24000/1001) FPS
Color space                              : YUV
Chroma subsampling                       : 4:2:0
Bit depth                                : 10 bits
Bits/(Pixel*Frame)                       : 0.201
Stream size                              : 7.56 GiB (69%)
Title                                    : Пірати Карибського Моря: Прокляття чорної перлини (2003) / Pirates of the Caribbean: The Curse of the Black Pearl (2003)
Writing library                          : x265 3.3+1-g554c887ac:[Windows][MSVC 1924][64 bit] 10bit
Encoding settings                        : cpuid=1111039 / frame-threads=3 / numa-pools=12 / wpp / no-pmode / no-pme / no-psnr / no-ssim / log-level=2 / input-csp=1 / input-res=1920x818 / interlace=0 / total-frames=191585 / level-idc=41 / high-tier=1 / uhd-bd=0 / ref=5 / no-allow-non-conformance / no-repeat-headers / annexb / no-aud / no-hrd / info / hash=0 / no-temporal-layers / open-gop / min-keyint=23 / keyint=240 / gop-lookahead=0 / bframes=8 / b-adapt=2 / b-pyramid / bframe-bias=0 / rc-lookahead=60 / lookahead-slices=4 / scenecut=40 / hist-scenecut=0 / radl=0 / no-splice / no-intra-refresh / ctu=32 / min-cu-size=8 / rect / amp / max-tu-size=32 / tu-inter-depth=4 / tu-intra-depth=4 / limit-tu=1 / rdoq-level=2 / dynamic-rd=0.00 / no-ssim-rd / signhide / no-tskip / nr-intra=0 / nr-inter=0 / no-constrained-intra / no-strong-intra-smoothing / max-merge=4 / limit-refs=2 / limit-modes / me=3 / subme=7 / merange=57 / temporal-mvp / no-frame-dup / no-hme / weightp / weightb / no-analyze-src-pics / deblock=-3:-3 / no-sao / no-sao-non-deblock / rd=6 / selective-sao=0 / no-early-skip / no-rskip / no-fast-intra / no-tskip-fast / no-cu-lossless / no-b-intra / no-splitrd-skip / rdpenalty=0 / psy-rd=2.00 / psy-rdoq=1.00 / no-rd-refine / no-lossless / cbqpoffs=0 / crqpoffs=0 / rc=crf / crf=21.0 / qcomp=0.70 / qpstep=4 / stats-write=0 / stats-read=0 / vbv-maxrate=50000 / vbv-bufsize=50000 / vbv-init=0.9 / crf-max=0.0 / crf-min=0.0 / ipratio=1.40 / pbratio=1.30 / aq-mode=1 / aq-strength=1.00 / no-cutree / zone-count=0 / no-strict-cbr / qg-size=32 / no-rc-grain / qpmax=69 / qpmin=0 / no-const-vbv / sar=1 / overscan=0 / videoformat=5 / range=0 / colorprim=1 / transfer=1 / colormatrix=1 / chromaloc=0 / display-window=0 / cll=0,0 / min-luma=0 / max-luma=1023 / log2-max-poc-lsb=8 / vui-timing-info / vui-hrd-info / slices=1 / no-opt-qp-pps / no-opt-ref-list-length-pps / no-multi-pass-opt-rps / scenecut-bias=0.05 / hist-threshold=0.01 / no-opt-cu-delta-qp / no-aq-motion / no-hdr10 / no-hdr10-opt / no-dhdr10-opt / no-idr-recovery-sei / analysis-reuse-level=0 / analysis-save-reuse-level=0 / analysis-load-reuse-level=0 / scale-factor=0 / refine-intra=0 / refine-inter=0 / refine-mv=1 / refine-ctu-distortion=0 / no-limit-sao / ctu-info=0 / no-lowpass-dct / refine-analysis-type=0 / copy-pic=1 / max-ausize-factor=1.0 / no-dynamic-refine / no-single-sei / no-hevc-aq / no-svt / no-field / qp-adaptation-range=1.00 / no-scenecut-aware-qpconformance-window-offsets / right=0 / bottom=0
Default                                  : Yes
Forced                                   : No
Color range                              : Limited
Color primaries                          : BT.709
Transfer characteristics                 : BT.709
Matrix coefficients                      : BT.709

Audio #1
ID                                       : 2
Format                                   :
Format/Info                              : Digital Theater Systems
Codec ID                                 : A_DTS
Duration                                 : 2 h 23 min
Bit rate mode                            : Constant
Bit rate                                 : 1 509 kb/s
Channel(s)                               : 2 channels
Channel layout                           : L R
Sampling rate                            : 48.0 kHz
Frame rate                               : 93.750 FPS (512 SPF)
Bit depth                                : 24 bits
Compression mode                         : Lossy
Delay relative to video                  : 1 s 0 ms
Stream size                              : 1.51 GiB (14%)
Title                                    : / 2.0 Ch / 1509 kbps / ПД
Language                                 : Ukrainian
Default                                  : Yes
Forced                                   : Yes

Audio #2
ID                                       : 3
Format                                   : AC-3
Format/Info                              : Audio Coding 3
Commercial name                          : Dolby Digital
Codec ID                                 : A_AC3
Duration                                 : 2 h 23 min
Bit rate mode                            : Constant
Bit rate                                 : 192 kb/s
Channel(s)                               : 2 channels
Channel layout                           : L R
Sampling rate                            : 48.0 kHz
Frame rate                               : 31.250 FPS (1536 SPF)
Compression mode                         : Lossy
Delay relative to video                  : 1 s 0 ms
Stream size                              : 197 MiB (2%)
Title                                    : / 2.0 Ch / 192 kbps / БЗ / 1+1
Language                                 : Ukrainian
Service kind                             : Complete Main
Default                                  : No
Forced                                   : No

Audio #3
ID                                       : 4
Format                                   : AC-3
Format/Info                              : Audio Coding 3
Commercial name                          : Dolby Digital
Codec ID                                 : A_AC3
Duration                                 : 2 h 23 min
Bit rate mode                            : Constant
Bit rate                                 : 192 kb/s
Channel(s)                               : 2 channels
Channel layout                           : L R
Sampling rate                            : 48.0 kHz
Frame rate                               : 31.250 FPS (1536 SPF)
Compression mode                         : Lossy
Delay relative to video                  : 500 ms
Stream size                              : 197 MiB (2%)
Title                                    : / 2.0 Ch / 192 kbps / БЗ / Novy Kanal
Language                                 : Ukrainian
Service kind                             : Complete Main
Default                                  : No
Forced                                   : No

Audio #4
ID                                       : 5
Format                                   :
Format/Info                              : Digital Theater Systems
Codec ID                                 : A_DTS
Duration                                 : 2 h 23 min
Bit rate mode                            : Constant
Bit rate                                 : 1 509 kb/s
Channel(s)                               : 6 channels
Channel layout                           : C L R Ls Rs LFE
Sampling rate                            : 48.0 kHz
Frame rate                               : 93.750 FPS (512 SPF)
Bit depth                                : 24 bits
Compression mode                         : Lossy
Delay relative to video                  : 1 s 0 ms
Stream size                              : 1.51 GiB (14%)
Title                                    : / 5.1 Ch / 1509 kbps / Original
Language                                 : English
Default                                  : No
Forced                                   : No

Text #1
ID                                       : 6
Format                                   : UTF-8
Codec ID                                 : S_TEXT/UTF8
Codec ID/Info                            : UTF-8 Plain Text
Duration                                 : 2 h 14 min
Bit rate                                 : 0 b/s
Count of elements                        : 5
Stream size                              : 226 Bytes (0%)
Title                                    : Forced
Language                                 : Ukrainian
Default                                  : Yes
Forced                                   : Yes

Text #2
ID                                       : 7
Format                                   : UTF-8
Codec ID                                 : S_TEXT/UTF8
Codec ID/Info                            : UTF-8 Plain Text
Duration                                 : 2 h 14 min
Bit rate                                 : 79 b/s
Count of elements                        : 1622
Stream size                              : 77.8 KiB (0%)
Title                                    : Full
Language                                 : Ukrainian
Default                                  : No
Forced                                   : No

Text #3
ID                                       : 8
Format                                   : UTF-8
Codec ID                                 : S_TEXT/UTF8
Codec ID/Info                            : UTF-8 Plain Text
Duration                                 : 2 h 12 min
Bit rate                                 : 47 b/s
Count of elements                        : 1619
Stream size                              : 46.1 KiB (0%)
Title                                    : Full
Language                                 : English
Default                                  : No
Forced                                   : No

Menu
00:00:00.000                             : en:Opening Credits/a Pirate's Life
00:08:51.280                             : en:Pirates Ye Be Warned
00:16:05.547                             : en:Elizabeth's Rescue
00:27:16.343                             : en:The Black Pearl
00:35:59.323                             : en:Welcome Aboard
00:41:02.960                             : en:The Hunt
00:48:19.938                             : en:Finding a Crew
00:54:01.279                             : en:Aztec Gold
01:04:05.675                             : en:The Treasure of Cortez
01:15:56.802                             : en:Keep to the Code
01:21:21.418                             : en:The Battle
01:35:00.152                             : en:Stranded Again
01:40:00.744                             : en:The Curse
01:48:15.613                             : en:The Trojan Horse
02:02:02.189                             : en:The Curse Is Lifted
02:13:09.648                             : en:End Credits
Світлини



2. Пірати Карибського Моря: Скриня мерця / Pirates of the Caribbean: Dead Man's Chest (2006) 1080p H.265 2хUkr/Eng | Sub Ukr/Eng
Пірати Карибського Моря: Скриня мерця / Pirates of the Caribbean: Dead Man's Chest (2006) 1080p H.265 2хUkr/Eng | Sub Ukr/Eng

Пірати Карибського моря. Колекція / Pirates of the Caribbean: Collection (2003/2006/2007/2011/2017) 1080p H.265 Ukr/Eng | Sub Ukr/Eng


Жанр: фентезі, бойовик, пригоди, пригодницький, комедія
Країна: США
Кінокомпанія: Walt Disney Pictures, Jerry Bruckheimer Films, Infinitum Nihil
Режисер: Гор Вербінські / Gore Verbinski
Актори: Джонні Депп / Jonny Depp, Орландо Блум / Orlando Bloom, Кіра Найтлі / Keira Knightley, Джек Девенпорт / Jack Davenport, Білл Найї / Bill Nighy, Джонатан Прайс / Jonathan Pryce, Лі Аренберг / Lee Arenberg

Сюжет:
Капітан Джек Сперроу опиняється в центрі чергової інтригуючої загадки, пов'язаної з надприродним. Виявляється, що на Сперроу лежить страшне прокляття всіх капітанів легендарного корабля-примари - Летючий Голландець і якщо він не знайде спосіб зняти з себе цю ношу, тоді після життя його чекає вічне рабство, прокляття і муки. Взаємостосунки Сперроу з потойбічним світом вносять серйозні зміни у весільні плани Уїлла Тернера і Елізабет Свонн, яким так само доводиться взяти активну участь в пригодах Джека.

Тривалість: 02:30:38
Якість:

Відео:
кодек: H.265 (HEVC)
розмір кадру: 1920 x 806
бітрейт: 8 009 кб/с
бітова глибина: 10 біт

Увага! Перед завантаженням переконайтесь, що ваш пристрій відтворення (та/або ПЗ) підтримує H.265 (HEVC)

Аудіо # 1:
мова: українська
переклад: професійний дубльований
кодек: AC-3 5.1
бітрейт: 640 кб/с

Аудіо # 2:
мова: українська
переклад: багатоголосий закадровий
кодек: AC-3 2.0
бітрейт: 192 кб/с

Аудіо # 3:
мова: англійська
переклад: оригінал
кодек: 5.1
бітрейт: 1510 кб/с

Субтитри # 1-2: (Forced, Full)
мова: українська
тип: програмні (м'які)
формат: *.srt

Субтитри # 3: (Full)
мова: англійська
тип: програмні (м'які)
формат: *.srt


Info
Код:
General
Unique ID                                : 71433285238965435674162077748999118190 (0x35BD8CE0E78294378125C895733E5D6E)
Complete name                            : 2. Pirates of the Caribbean. Dead Man's Chest (2006) 1080p H.265 [2xUKR_ENG] [Hurtom].
Format                                   :
Format version                           : Version 4
File size                                : 10.9 GiB
Duration                                 : 2 h 30 min
Overall bit rate                         : 10.4 Mb/s
Movie name                               : Пірати Карибського моря. Скриня мерця (2006) / Pirates of the Caribbean: Dead Man's Chest (2006)
Encoded date                             : UTC 2020-06-30 14:45:13
Writing application                      : v20.0.0 ('I Am The Sun') 64-bit
Writing library                          : libebml v1.3.5 + v1.4.8
Cover                                    : Yes
Attachments                              : cover

Video
ID                                       : 1
Format                                   : HEVC
Format/Info                              : High Efficiency Video Coding
Format profile                           : Main [email protected]@High
Codec ID                                 : V_MPEGH/ISO/HEVC
Duration                                 : 2 h 30 min
Bit rate                                 : 8 009 kb/s
Width                                    : 1 920 pixels
Height                                   : 806 pixels
Display aspect ratio                     : 2.40:1
Frame rate mode                          : Constant
Frame rate                               : 23.976 (24000/1001) FPS
Color space                              : YUV
Chroma subsampling                       : 4:2:0
Bit depth                                : 10 bits
Bits/(Pixel*Frame)                       : 0.216
Stream size                              : 8.43 GiB (77%)
Title                                    : Пірати Карибського моря. Скриня мерця (2006) / Pirates of the Caribbean: Dead Man's Chest (2006)
Writing library                          : x265 3.3+1-g554c887ac:[Windows][MSVC 1924][64 bit] 10bit
Encoding settings                        : cpuid=1111039 / frame-threads=3 / numa-pools=12 / wpp / no-pmode / no-pme / no-psnr / no-ssim / log-level=2 / input-csp=1 / input-res=1920x806 / interlace=0 / total-frames=202952 / level-idc=41 / high-tier=1 / uhd-bd=0 / ref=5 / no-allow-non-conformance / no-repeat-headers / annexb / no-aud / no-hrd / info / hash=0 / no-temporal-layers / open-gop / min-keyint=23 / keyint=240 / gop-lookahead=0 / bframes=8 / b-adapt=2 / b-pyramid / bframe-bias=0 / rc-lookahead=60 / lookahead-slices=4 / scenecut=40 / hist-scenecut=0 / radl=0 / no-splice / no-intra-refresh / ctu=32 / min-cu-size=8 / rect / amp / max-tu-size=32 / tu-inter-depth=4 / tu-intra-depth=4 / limit-tu=1 / rdoq-level=2 / dynamic-rd=0.00 / no-ssim-rd / signhide / no-tskip / nr-intra=0 / nr-inter=0 / no-constrained-intra / no-strong-intra-smoothing / max-merge=4 / limit-refs=2 / limit-modes / me=3 / subme=7 / merange=57 / temporal-mvp / no-frame-dup / no-hme / weightp / weightb / no-analyze-src-pics / deblock=-3:-3 / no-sao / no-sao-non-deblock / rd=6 / selective-sao=0 / no-early-skip / no-rskip / no-fast-intra / no-tskip-fast / no-cu-lossless / no-b-intra / no-splitrd-skip / rdpenalty=0 / psy-rd=2.00 / psy-rdoq=1.00 / no-rd-refine / no-lossless / cbqpoffs=0 / crqpoffs=0 / rc=crf / crf=20.0 / qcomp=0.65 / qpstep=4 / stats-write=0 / stats-read=0 / vbv-maxrate=50000 / vbv-bufsize=50000 / vbv-init=0.9 / crf-max=0.0 / crf-min=0.0 / ipratio=1.40 / pbratio=1.30 / aq-mode=1 / aq-strength=1.00 / no-cutree / zone-count=0 / no-strict-cbr / qg-size=32 / no-rc-grain / qpmax=69 / qpmin=0 / no-const-vbv / sar=1 / overscan=0 / videoformat=5 / range=0 / colorprim=1 / transfer=1 / colormatrix=1 / chromaloc=0 / display-window=0 / cll=0,0 / min-luma=0 / max-luma=1023 / log2-max-poc-lsb=8 / vui-timing-info / vui-hrd-info / slices=1 / no-opt-qp-pps / no-opt-ref-list-length-pps / no-multi-pass-opt-rps / scenecut-bias=0.05 / hist-threshold=0.01 / no-opt-cu-delta-qp / no-aq-motion / no-hdr10 / no-hdr10-opt / no-dhdr10-opt / no-idr-recovery-sei / analysis-reuse-level=0 / analysis-save-reuse-level=0 / analysis-load-reuse-level=0 / scale-factor=0 / refine-intra=0 / refine-inter=0 / refine-mv=1 / refine-ctu-distortion=0 / no-limit-sao / ctu-info=0 / no-lowpass-dct / refine-analysis-type=0 / copy-pic=1 / max-ausize-factor=1.0 / no-dynamic-refine / no-single-sei / no-hevc-aq / no-svt / no-field / qp-adaptation-range=1.00 / no-scenecut-aware-qpconformance-window-offsets / right=0 / bottom=0
Default                                  : Yes
Forced                                   : No
Color range                              : Limited
Color primaries                          : BT.709
Transfer characteristics                 : BT.709
Matrix coefficients                      : BT.709

Audio #1
ID                                       : 2
Format                                   : AC-3
Format/Info                              : Audio Coding 3
Commercial name                          : Dolby Digital
Codec ID                                 : A_AC3
Duration                                 : 2 h 30 min
Bit rate mode                            : Constant
Bit rate                                 : 640 kb/s
Channel(s)                               : 6 channels
Channel layout                           : L R C LFE Ls Rs
Sampling rate                            : 48.0 kHz
Frame rate                               : 31.250 FPS (1536 SPF)
Compression mode                         : Lossy
Stream size                              : 690 MiB (6%)
Title                                    : / 5.1 Ch / 640 kbps / ПД / Blu-Ray
Language                                 : Ukrainian
Service kind                             : Complete Main
Default                                  : Yes
Forced                                   : Yes

Audio #2
ID                                       : 3
Format                                   : AC-3
Format/Info                              : Audio Coding 3
Commercial name                          : Dolby Digital
Codec ID                                 : A_AC3
Duration                                 : 2 h 30 min
Bit rate mode                            : Constant
Bit rate                                 : 192 kb/s
Channel(s)                               : 2 channels
Channel layout                           : L R
Sampling rate                            : 48.0 kHz
Frame rate                               : 31.250 FPS (1536 SPF)
Compression mode                         : Lossy
Stream size                              : 207 MiB (2%)
Title                                    : / 2.0 Ch / 192 kbps / БЗ / 1+1
Language                                 : Ukrainian
Service kind                             : Complete Main
Default                                  : No
Forced                                   : No

Audio #3
ID                                       : 4
Format                                   :
Format/Info                              : Digital Theater Systems
Codec ID                                 : A_DTS
Duration                                 : 2 h 30 min
Bit rate mode                            : Constant
Bit rate                                 : 1 509 kb/s
Channel(s)                               : 6 channels
Channel layout                           : C L R Ls Rs LFE
Sampling rate                            : 48.0 kHz
Frame rate                               : 93.750 FPS (512 SPF)
Bit depth                                : 24 bits
Compression mode                         : Lossy
Stream size                              : 1.59 GiB (15%)
Title                                    : / 5.1 Ch / 1509 kbps / Original
Language                                 : English
Default                                  : No
Forced                                   : No

Text #1
ID                                       : 5
Format                                   : UTF-8
Codec ID                                 : S_TEXT/UTF8
Codec ID/Info                            : UTF-8 Plain Text
Duration                                 : 2 h 21 min
Bit rate                                 : 0 b/s
Count of elements                        : 6
Stream size                              : 198 Bytes (0%)
Title                                    : Forced
Language                                 : Ukrainian
Default                                  : Yes
Forced                                   : Yes

Text #2
ID                                       : 6
Format                                   : UTF-8
Codec ID                                 : S_TEXT/UTF8
Codec ID/Info                            : UTF-8 Plain Text
Duration                                 : 2 h 21 min
Bit rate                                 : 57 b/s
Count of elements                        : 1296
Stream size                              : 59.3 KiB (0%)
Title                                    : Full
Language                                 : Ukrainian
Default                                  : No
Forced                                   : No

Text #3
ID                                       : 7
Format                                   : UTF-8
Codec ID                                 : S_TEXT/UTF8
Codec ID/Info                            : UTF-8 Plain Text
Duration                                 : 2 h 27 min
Bit rate                                 : 40 b/s
Count of elements                        : 1353
Stream size                              : 44.1 KiB (0%)
Title                                    : Full
Language                                 : English
Default                                  : No
Forced                                   : No

Menu
00:00:00.000                             : en:Introduction
00:04:18.924                             : en:"and a Bottle of Rum"
00:09:53.009                             : en:"Left Our Marks"
00:12:13.441                             : en:"Time Is Running Out"
00:19:09.064                             : en:"I Have Faith in You"
00:23:53.471                             : en:"Save Me"
00:30:15.480                             : en:Salvaging the Ship
00:35:29.418                             : en:"About Six Will Do"
00:40:32.929                             : en:"This Way, Lads"
00:46:28.034                             : en:The Ship Is Haunted
00:50:25.563                             : en:Touch of Destiny
00:56:18.625                             : en:The Flying Dutchman
00:59:52.380                             : en:Davy Jones
01:05:45.189                             : en:Tortuga
01:11:55.853                             : en:Mr. Turner
01:17:04.327                             : en:"Hide the Rum"
01:22:10.256                             : en:Game of Deception
01:30:36.639                             : en:Persuade Me
01:34:38.171                             : en:The Kraken
01:39:21.828                             : en:"Very Much Alike"
01:44:52.408                             : en:"Can't Let You Do That"
01:49:14.712                             : en:Fight for the Key
01:54:55.805                             : en:Beating Heart
01:59:36.042                             : en:"I Got a Jar of Dirt"
02:04:59.908                             : en:Load the Rum
02:10:27.194                             : en:Abandon Ship
02:16:20.629                             : en:"Something to Trade"
02:21:04.789                             : en:Credits
Світлини



3. Пірати Карибського Моря: На краю світу / Pirates of the Caribbean: At World's End (2007) 1080p H.265 Ukr/Eng | Sub Ukr/Eng
Пірати Карибського Моря: На краю світу / Pirates of the Caribbean: At World's End (2007) 1080p H.265 Ukr/Eng | Sub Ukr/Eng

Пірати Карибського моря. Колекція / Pirates of the Caribbean: Collection (2003/2006/2007/2011/2017) 1080p H.265 Ukr/Eng | Sub Ukr/Eng


Жанр: фентезі, екшн, комедія, пригодницький
Країна: США
Кінокомпанія: Walt Disney Pictures, Jerry Bruckheimer Films, Infinitum Nihil
Режисер: Гор Вербінські / Gore Verbinski
Актори: Джонні Депп / Jonny Depp, Орландо Блум / Orlando Bloom, Кіра Найтлі / Keira Knightley ,Джек Девенпорт / Jack Davenport , Білл Найї / Bill Nighy , Джонатан Прайс / Jonathan Pryce.

Сюжет:
Нові пригоди Джека Сперроу і його друзів Уілла Тернера і Елізабет Суонн. Цього разу Уіллу і Елізабет доведеться об'єднатися з самим Капітаном Барбоссою для того, щоб відправитися на край світу і врятувати свого друга — Джека Сперроу. Ситуація ускладнюється тим, що Елізабет викрадають китайські пірати...

Тривалість: 02:48:30
Якість:

Відео:
кодек: H.265 (HEVC)
розмір кадру: 1920 x 800
бітрейт: 9 365 кб/с
бітова глибина: 10 біт

Увага! Перед завантаженням переконайтесь, що ваш пристрій відтворення (та/або ПЗ) підтримує H.265 (HEVC)

Аудіо # 1:
мова: українська
переклад: професійний дубльований
кодек: AC-3 5.1
бітрейт: 640 кб/с

Аудіо # 2:
мова: англійська
переклад: оригінал
кодек: 5.1
бітрейт: 1510 кб/с

Субтитри # 1-2: (Forced, Full)
мова: українська
тип: програмні (м'які)
формат: *.srt

Субтитри # 3: (Full)
мова: англійська
тип: програмні (м'які)
формат: *.srt


Info
Код:
General
Unique ID                                : 323571520012876098410525420417008797085 (0xF36D9BA2E5C51AB56B0210DCFCF4059D)
Complete name                            : 3. Pirates of the Caribbean. At World's End (2007) 1080p H.265 [UKR_ENG] [Hurtom].
Format                                   :
Format version                           : Version 4
File size                                : 13.6 GiB
Duration                                 : 2 h 48 min
Overall bit rate                         : 11.5 Mb/s
Movie name                               : Пірати Карибського моря. На краю світу (2007) / Pirates of the Caribbean: At World's End (2007)
Encoded date                             : UTC 2020-06-30 14:52:30
Writing application                      : v20.0.0 ('I Am The Sun') 64-bit
Writing library                          : libebml v1.3.5 + v1.4.8
Cover                                    : Yes
Attachments                              : cover

Video
ID                                       : 1
Format                                   : HEVC
Format/Info                              : High Efficiency Video Coding
Format profile                           : Main [email protected]@High
Codec ID                                 : V_MPEGH/ISO/HEVC
Duration                                 : 2 h 48 min
Bit rate                                 : 9 365 kb/s
Width                                    : 1 920 pixels
Height                                   : 800 pixels
Display aspect ratio                     : 2.40:1
Frame rate mode                          : Constant
Frame rate                               : 23.976 (24000/1001) FPS
Color space                              : YUV
Chroma subsampling                       : 4:2:0
Bit depth                                : 10 bits
Bits/(Pixel*Frame)                       : 0.254
Stream size                              : 11.0 GiB (81%)
Title                                    : Пірати Карибського моря. На краю світу (2007) / Pirates of the Caribbean: At World's End (2007)
Writing library                          : x265 3.3+1-g554c887ac:[Windows][MSVC 1924][64 bit] 10bit
Encoding settings                        : cpuid=1111039 / frame-threads=3 / numa-pools=12 / wpp / no-pmode / no-pme / no-psnr / no-ssim / log-level=2 / input-csp=1 / input-res=1920x800 / interlace=0 / total-frames=228457 / level-idc=41 / high-tier=1 / uhd-bd=0 / ref=5 / no-allow-non-conformance / no-repeat-headers / annexb / no-aud / no-hrd / info / hash=0 / no-temporal-layers / open-gop / min-keyint=23 / keyint=240 / gop-lookahead=0 / bframes=8 / b-adapt=2 / b-pyramid / bframe-bias=0 / rc-lookahead=60 / lookahead-slices=4 / scenecut=40 / hist-scenecut=0 / radl=0 / no-splice / no-intra-refresh / ctu=32 / min-cu-size=8 / rect / amp / max-tu-size=32 / tu-inter-depth=4 / tu-intra-depth=4 / limit-tu=1 / rdoq-level=2 / dynamic-rd=0.00 / no-ssim-rd / signhide / no-tskip / nr-intra=0 / nr-inter=0 / no-constrained-intra / no-strong-intra-smoothing / max-merge=4 / limit-refs=2 / limit-modes / me=3 / subme=7 / merange=57 / temporal-mvp / no-frame-dup / no-hme / weightp / weightb / no-analyze-src-pics / deblock=-3:-3 / no-sao / no-sao-non-deblock / rd=6 / selective-sao=0 / no-early-skip / no-rskip / no-fast-intra / no-tskip-fast / no-cu-lossless / no-b-intra / no-splitrd-skip / rdpenalty=0 / psy-rd=2.00 / psy-rdoq=1.00 / no-rd-refine / no-lossless / cbqpoffs=0 / crqpoffs=0 / rc=crf / crf=20.0 / qcomp=0.65 / qpstep=4 / stats-write=0 / stats-read=0 / vbv-maxrate=50000 / vbv-bufsize=50000 / vbv-init=0.9 / crf-max=0.0 / crf-min=0.0 / ipratio=1.40 / pbratio=1.30 / aq-mode=1 / aq-strength=1.00 / no-cutree / zone-count=0 / no-strict-cbr / qg-size=32 / no-rc-grain / qpmax=69 / qpmin=0 / no-const-vbv / sar=1 / overscan=0 / videoformat=5 / range=0 / colorprim=1 / transfer=1 / colormatrix=1 / chromaloc=0 / display-window=0 / cll=0,0 / min-luma=0 / max-luma=1023 / log2-max-poc-lsb=8 / vui-timing-info / vui-hrd-info / slices=1 / no-opt-qp-pps / no-opt-ref-list-length-pps / no-multi-pass-opt-rps / scenecut-bias=0.05 / hist-threshold=0.01 / no-opt-cu-delta-qp / no-aq-motion / no-hdr10 / no-hdr10-opt / no-dhdr10-opt / no-idr-recovery-sei / analysis-reuse-level=0 / analysis-save-reuse-level=0 / analysis-load-reuse-level=0 / scale-factor=0 / refine-intra=0 / refine-inter=0 / refine-mv=1 / refine-ctu-distortion=0 / no-limit-sao / ctu-info=0 / no-lowpass-dct / refine-analysis-type=0 / copy-pic=1 / max-ausize-factor=1.0 / no-dynamic-refine / no-single-sei / no-hevc-aq / no-svt / no-field / qp-adaptation-range=1.00 / no-scenecut-aware-qpconformance-window-offsets / right=0 / bottom=0
Default                                  : Yes
Forced                                   : No
Color range                              : Limited
Color primaries                          : BT.709
Transfer characteristics                 : BT.709
Matrix coefficients                      : BT.709

Audio #1
ID                                       : 2
Format                                   : AC-3
Format/Info                              : Audio Coding 3
Commercial name                          : Dolby Digital
Codec ID                                 : A_AC3
Duration                                 : 2 h 48 min
Bit rate mode                            : Constant
Bit rate                                 : 640 kb/s
Channel(s)                               : 6 channels
Channel layout                           : L R C LFE Ls Rs
Sampling rate                            : 48.0 kHz
Frame rate                               : 31.250 FPS (1536 SPF)
Compression mode                         : Lossy
Stream size                              : 771 MiB (6%)
Title                                    : / 5.1 Ch / 640 kbps / ПД / Blu-Ray
Language                                 : Ukrainian
Service kind                             : Complete Main
Default                                  : Yes
Forced                                   : Yes

Audio #2
ID                                       : 3
Format                                   :
Format/Info                              : Digital Theater Systems
Codec ID                                 : A_DTS
Duration                                 : 2 h 48 min
Bit rate mode                            : Constant
Bit rate                                 : 1 509 kb/s
Channel(s)                               : 6 channels
Channel layout                           : C L R Ls Rs LFE
Sampling rate                            : 48.0 kHz
Frame rate                               : 93.750 FPS (512 SPF)
Bit depth                                : 24 bits
Compression mode                         : Lossy
Stream size                              : 1.78 GiB (13%)
Title                                    : / 5.1 Ch / 1509 kbps / Original
Language                                 : English
Default                                  : No
Forced                                   : No

Text #1
ID                                       : 4
Format                                   : UTF-8
Codec ID                                 : S_TEXT/UTF8
Codec ID/Info                            : UTF-8 Plain Text
Duration                                 : 2 h 46 min
Bit rate                                 : 0 b/s
Count of elements                        : 10
Stream size                              : 405 Bytes (0%)
Title                                    : Forced
Language                                 : Ukrainian
Default                                  : Yes
Forced                                   : Yes

Text #2
ID                                       : 5
Format                                   : UTF-8
Codec ID                                 : S_TEXT/UTF8
Codec ID/Info                            : UTF-8 Plain Text
Duration                                 : 2 h 46 min
Bit rate                                 : 64 b/s
Count of elements                        : 1516
Stream size                              : 79.1 KiB (0%)
Title                                    : Full
Language                                 : Ukrainian
Default                                  : No
Forced                                   : No

Text #3
ID                                       : 6
Format                                   : UTF-8
Codec ID                                 : S_TEXT/UTF8
Codec ID/Info                            : UTF-8 Plain Text
Duration                                 : 2 h 36 min
Bit rate                                 : 41 b/s
Count of elements                        : 1489
Stream size                              : 47.5 KiB (0%)
Title                                    : Full
Language                                 : English
Default                                  : No
Forced                                   : No

Menu
00:00:00.000                             : en:Suspended
00:04:33.940                             : en:A Dangerous Song
00:10:01.809                             : en:Welcome to Singapore
00:19:58.280                             : en:Cold
00:26:07.482                             : en:Captain's Commands
00:32:47.340                             : en:A Jack of All Trades
00:39:40.336                             : en:Davy Jones' Locker
00:46:04.761                             : en:Souls at Sea
00:51:31.963                             : en:Rock and Roll
00:58:03.730                             : en:The Last Pirate
01:04:50.678                             : en:An Old Friend
01:12:46.820                             : en:A New Captain
01:17:54.878                             : en:Bootstrap
01:24:46.539                             : en:Choosing a Side
01:28:41.357                             : en:Shipwreck Island
01:33:34.150                             : en:Brethren Court
01:38:05.671                             : en:Reunion
01:41:52.981                             : en:The Pirate Code
01:48:12.652                             : en:The Exchange
01:53:13.286                             : en:Pieces of Eight
01:59:31.372                             : en:A Fool's Chance
02:05:52.211                             : en:Leverage
02:09:13.245                             : en:Time to Fly
02:13:53.525                             : en:Community Chest
02:23:19.257                             : en:Good Business
02:28:15.636                             : en:Turning Away
02:34:29.217                             : en:Egregious
02:38:48.560                             : en:Credits
Світлини



4. Пірати Карибського моря: На дивних берегах / Pirates of the Caribbean: On Stranger Tides (2011) 1080p H.265 Ukr/Eng | Sub Ukr/Eng
Пірати Карибського моря: На дивних берегах / Pirates of the Caribbean: On Stranger Tides (2011) 1080p H.265 Ukr/Eng | Sub Ukr/Eng

Пірати Карибського моря. Колекція / Pirates of the Caribbean: Collection (2003/2006/2007/2011/2017) 1080p H.265 Ukr/Eng | Sub Ukr/Eng


Жанр: бойовик, пригодницький, фентезі
Країна: США
Кінокомпанія: Walt Disney Pictures, Jerry Bruckheimer Films, Moving Picture Company
Режисер: Роб Маршалл / Rob Marshall
Актори: Джонні Депп / Jonny Depp, Пенелопа Круз / Penelope Cruz, Джеффрі Раш / Geoffrey Rush, Йєн МакШейн / Ian McShane, Джуді Денч / Judi Dench, Стівен Грехем / Stephen Graham, Джемма Ворд / Gemma Ward, Річард Гріффітс / Richard Griffiths та інші.

Сюжет:
У новій історії про пошуки істини, зраду, вічну молодість і смертельну небезпеку капітанові Джеку Сперроу належить зіткнутися з жінкою зі свого минулого Анжелікою. До самого кінця не буде зрозуміле, чи зв'язує їх справжнє кохання, або ж Анжеліка майстерно прикидається, щоб разом з Джеком дістатися до таємничого джерела вічної молодості.

Вона силоміць змушує капітана Джека Сперроу зійти на корабель «Помста Королеви Анни», яким управляє підступний лиходій Чорна Борода. Наш герой опиняється в ситуації, коли він не знає, чого йому боятися більше — жахливого лиходія або ж свою давню подругу.


Тривалість: 02:16:23
Якість:

Відео:
кодек: H.265 (HEVC)
розмір кадру: 1920 x 800
бітрейт: 6 506 кб/с
бітова глибина: 10 біт

Увага! Перед завантаженням переконайтесь, що ваш пристрій відтворення (та/або ПЗ) підтримує H.265 (HEVC)

Аудіо # 1:
мова: українська
переклад: професійний дубльований
кодек: 5.1
бітрейт: 1511 кб/с

Аудіо # 2:
мова: українська
переклад: професійний дубльований
кодек: AC-3 5.1
бітрейт: 640 кб/с

Аудіо # 3:
мова: англійська
переклад: оригінал
кодек: 5.1
бітрейт: 1510 кб/с

Аудіо # 4:
мова: англійська
переклад: оригінал | Commentary by Director Rob Marshall and Executive Producer John DeLuca
кодек: AC-3 2.0
бітрейт: 192 кб/с

Субтитри # 1-3: (Forced, Full, Commentary by Director Rob Marshall and Executive Producer John DeLuca)
мова: українська
тип: програмні (м'які)
формат: *.srt

Субтитри # 4-5: (Full, SDH)
мова: англійська
тип: програмні (м'які)
формат: *.srt


Info
Код:
General
Unique ID                                : 158032877007727916325409358504064532882 (0x76E406669371A93C8FFE2093E2014192)
Complete name                            : 4. Pirates of the Caribbean. On Stranger Tides (2011) 1080p H.265 [UKR_ENG] [Hurtom].
Format                                   :
Format version                           : Version 4
File size                                : 9.87 GiB
Duration                                 : 2 h 16 min
Overall bit rate                         : 10.4 Mb/s
Movie name                               : Пірати Карибського моря. На дивних берегах (2011) / Pirates of the Caribbean: On Stranger Tides (2011)
Encoded date                             : UTC 2020-06-30 15:11:12
Writing application                      : v20.0.0 ('I Am The Sun') 64-bit
Writing library                          : libebml v1.3.5 + v1.4.8
Cover                                    : Yes
Attachments                              : cover

Video
ID                                       : 1
Format                                   : HEVC
Format/Info                              : High Efficiency Video Coding
Format profile                           : Main [email protected]@High
Codec ID                                 : V_MPEGH/ISO/HEVC
Duration                                 : 2 h 16 min
Bit rate                                 : 6 506 kb/s
Width                                    : 1 920 pixels
Height                                   : 800 pixels
Display aspect ratio                     : 2.40:1
Frame rate mode                          : Constant
Frame rate                               : 23.976 (23976/1000) FPS
Original frame rate                      : 23.976 (24000/1001) FPS
Color space                              : YUV
Chroma subsampling                       : 4:2:0
Bit depth                                : 10 bits
Bits/(Pixel*Frame)                       : 0.177
Stream size                              : 6.20 GiB (63%)
Title                                    : Пірати Карибського моря. На дивних берегах (2011) / Pirates of the Caribbean: On Stranger Tides (2011)
Writing library                          : x265 3.3+1-g554c887ac:[Windows][MSVC 1924][64 bit] 10bit
Encoding settings                        : cpuid=1111039 / frame-threads=3 / numa-pools=12 / wpp / no-pmode / no-pme / no-psnr / no-ssim / log-level=2 / input-csp=1 / input-res=1920x800 / interlace=0 / total-frames=185806 / level-idc=41 / high-tier=1 / uhd-bd=0 / ref=5 / no-allow-non-conformance / no-repeat-headers / annexb / no-aud / no-hrd / info / hash=0 / no-temporal-layers / open-gop / min-keyint=23 / keyint=240 / gop-lookahead=0 / bframes=8 / b-adapt=2 / b-pyramid / bframe-bias=0 / rc-lookahead=60 / lookahead-slices=4 / scenecut=40 / hist-scenecut=0 / radl=0 / no-splice / no-intra-refresh / ctu=32 / min-cu-size=8 / rect / amp / max-tu-size=32 / tu-inter-depth=4 / tu-intra-depth=4 / limit-tu=1 / rdoq-level=2 / dynamic-rd=0.00 / no-ssim-rd / signhide / no-tskip / nr-intra=0 / nr-inter=0 / no-constrained-intra / no-strong-intra-smoothing / max-merge=4 / limit-refs=2 / limit-modes / me=3 / subme=7 / merange=57 / temporal-mvp / no-frame-dup / no-hme / weightp / weightb / no-analyze-src-pics / deblock=-3:-3 / no-sao / no-sao-non-deblock / rd=6 / selective-sao=0 / no-early-skip / no-rskip / no-fast-intra / no-tskip-fast / no-cu-lossless / no-b-intra / no-splitrd-skip / rdpenalty=0 / psy-rd=2.00 / psy-rdoq=1.00 / no-rd-refine / no-lossless / cbqpoffs=0 / crqpoffs=0 / rc=crf / crf=20.0 / qcomp=0.65 / qpstep=4 / stats-write=0 / stats-read=0 / vbv-maxrate=50000 / vbv-bufsize=50000 / vbv-init=0.9 / crf-max=0.0 / crf-min=0.0 / ipratio=1.40 / pbratio=1.30 / aq-mode=1 / aq-strength=1.00 / no-cutree / zone-count=0 / no-strict-cbr / qg-size=32 / no-rc-grain / qpmax=69 / qpmin=0 / no-const-vbv / sar=1 / overscan=0 / videoformat=5 / range=0 / colorprim=1 / transfer=1 / colormatrix=1 / chromaloc=0 / display-window=0 / cll=0,0 / min-luma=0 / max-luma=1023 / log2-max-poc-lsb=8 / vui-timing-info / vui-hrd-info / slices=1 / no-opt-qp-pps / no-opt-ref-list-length-pps / no-multi-pass-opt-rps / scenecut-bias=0.05 / hist-threshold=0.01 / no-opt-cu-delta-qp / no-aq-motion / no-hdr10 / no-hdr10-opt / no-dhdr10-opt / no-idr-recovery-sei / analysis-reuse-level=0 / analysis-save-reuse-level=0 / analysis-load-reuse-level=0 / scale-factor=0 / refine-intra=0 / refine-inter=0 / refine-mv=1 / refine-ctu-distortion=0 / no-limit-sao / ctu-info=0 / no-lowpass-dct / refine-analysis-type=0 / copy-pic=1 / max-ausize-factor=1.0 / no-dynamic-refine / no-single-sei / no-hevc-aq / no-svt / no-field / qp-adaptation-range=1.00 / no-scenecut-aware-qpconformance-window-offsets / right=0 / bottom=0
Default                                  : Yes
Forced                                   : No
Color range                              : Limited
Color primaries                          : BT.709
Transfer characteristics                 : BT.709
Matrix coefficients                      : BT.709

Audio #1
ID                                       : 2
Format                                   :
Format/Info                              : Digital Theater Systems
Codec ID                                 : A_DTS
Duration                                 : 2 h 16 min
Bit rate mode                            : Constant
Bit rate                                 : 1 510 kb/s
Channel(s)                               : 6 channels
Channel layout                           : C L R Ls Rs LFE
Sampling rate                            : 48.0 kHz
Frame rate                               : 93.750 FPS (512 SPF)
Bit depth                                : 24 bits
Compression mode                         : Lossy
Stream size                              : 1.44 GiB (15%)
Title                                    : / 5.1 Ch / 1509 kbps / ПД / Blu-Ray
Language                                 : Ukrainian
Default                                  : Yes
Forced                                   : Yes

Audio #2
ID                                       : 3
Format                                   : AC-3
Format/Info                              : Audio Coding 3
Commercial name                          : Dolby Digital
Codec ID                                 : A_AC3
Duration                                 : 2 h 16 min
Bit rate mode                            : Constant
Bit rate                                 : 640 kb/s
Channel(s)                               : 6 channels
Channel layout                           : L R C LFE Ls Rs
Sampling rate                            : 48.0 kHz
Frame rate                               : 31.250 FPS (1536 SPF)
Compression mode                         : Lossy
Stream size                              : 624 MiB (6%)
Title                                    : / 5.1 Ch / 640 kbps / ПД / Blu-Ray
Language                                 : Ukrainian
Service kind                             : Complete Main
Default                                  : No
Forced                                   : No

Audio #3
ID                                       : 4
Format                                   :
Format/Info                              : Digital Theater Systems
Codec ID                                 : A_DTS
Duration                                 : 2 h 16 min
Bit rate mode                            : Constant
Bit rate                                 : 1 509 kb/s
Channel(s)                               : 6 channels
Channel layout                           : C L R Ls Rs LFE
Sampling rate                            : 48.0 kHz
Frame rate                               : 93.750 FPS (512 SPF)
Bit depth                                : 24 bits
Compression mode                         : Lossy
Stream size                              : 1.44 GiB (15%)
Title                                    : / 5.1 Ch / 1509 kbps / Original
Language                                 : English
Default                                  : No
Forced                                   : No

Audio #4
ID                                       : 5
Format                                   : AC-3
Format/Info                              : Audio Coding 3
Commercial name                          : Dolby Digital
Codec ID                                 : A_AC3
Duration                                 : 2 h 16 min
Bit rate mode                            : Constant
Bit rate                                 : 192 kb/s
Channel(s)                               : 2 channels
Channel layout                           : L R
Sampling rate                            : 48.0 kHz
Frame rate                               : 31.250 FPS (1536 SPF)
Compression mode                         : Lossy
Stream size                              : 187 MiB (2%)
Title                                    : / 2.0 Ch / 192 kbps / Original / Commentary by Director Rob Marshall and Executive Producer John DeLuca
Language                                 : English
Service kind                             : Complete Main
Default                                  : No
Forced                                   : No

Text #1
ID                                       : 6
Format                                   : UTF-8
Codec ID                                 : S_TEXT/UTF8
Codec ID/Info                            : UTF-8 Plain Text
Duration                                 : 2 h 6 min
Bit rate                                 : 0 b/s
Count of elements                        : 7
Stream size                              : 295 Bytes (0%)
Title                                    : Forced
Language                                 : Ukrainian
Default                                  : Yes
Forced                                   : Yes

Text #2
ID                                       : 7
Format                                   : UTF-8
Codec ID                                 : S_TEXT/UTF8
Codec ID/Info                            : UTF-8 Plain Text
Duration                                 : 2 h 6 min
Bit rate                                 : 69 b/s
Count of elements                        : 1340
Stream size                              : 64.2 KiB (0%)
Title                                    : Full
Language                                 : Ukrainian
Default                                  : No
Forced                                   : No

Text #3
ID                                       : 8
Format                                   : UTF-8
Codec ID                                 : S_TEXT/UTF8
Codec ID/Info                            : UTF-8 Plain Text
Duration                                 : 2 h 9 min
Bit rate                                 : 111 b/s
Count of elements                        : 2177
Stream size                              : 106 KiB (0%)
Title                                    : Commentary by Director Rob Marshall and Executive Producer John DeLuca
Language                                 : Ukrainian
Default                                  : No
Forced                                   : No

Text #4
ID                                       : 9
Format                                   : UTF-8
Codec ID                                 : S_TEXT/UTF8
Codec ID/Info                            : UTF-8 Plain Text
Duration                                 : 2 h 5 min
Bit rate                                 : 47 b/s
Count of elements                        : 1331
Stream size                              : 44.1 KiB (0%)
Title                                    : Full
Language                                 : English
Default                                  : No
Forced                                   : No

Text #5
ID                                       : 10
Format                                   : UTF-8
Codec ID                                 : S_TEXT/UTF8
Codec ID/Info                            : UTF-8 Plain Text
Duration                                 : 2 h 16 min
Bit rate                                 : 51 b/s
Count of elements                        : 1534
Stream size                              : 51.7 KiB (0%)
Title                                    : SDH
Language                                 : English
Default                                  : No
Forced                                   : No

Menu
00:00:00.000                             : en:An Unorthodox Catch/Opening Credits
00:03:34.172                             : en:On Trial
00:08:46.776                             : en:Royal Visit
00:15:56.080                             : en:Escape
00:18:34.154                             : en:The Captain's Daughter
00:21:15.315                             : en:Stolen Identity
00:30:05.512                             : en:The Queen Anne
00:36:56.756                             : en:Mutiny Most Foul
00:42:05.356                             : en:A Bad Man
00:48:20.022                             : en:The Prophecy
00:53:26.077                             : en:Thick as Thieves
00:55:42.964                             : en:The Truth
00:57:52.844                             : en:Whitecap Bay
01:00:47.477                             : en:God Save Me
01:08:22.223                             : en:A Mermaid
01:11:41.338                             : en:Through The Jungle
01:13:03.170                             : en:Whatever is Necessary
01:14:16.743                             : en:A Sudden Urge To Jump
01:23:19.994                             : en:No, You
01:26:49.621                             : en:Jungle Pools
01:30:16.494                             : en:Stirrings
01:35:43.737                             : en:An Improvised Escape
01:40:57.926                             : en:A Trade for the Compass
01:43:07.556                             : en:A Dramatic Entrance
01:44:51.660                             : en:Aqua de Vida
01:48:53.610                             : en:One Last Fight
01:57:41.471                             : en:Do Not Waste My Tear
02:02:21.375                             : en:Choosing the Dog
02:05:51.460                             : en:For The Pearl
02:07:26.805                             : en:Credits
Світлини



5. Пірати Карибського моря: Помста Салазара / Pirates of the Caribbean: Dead Men Tell No Tales (2017) 1080p H.265 Ukr/Eng | Sub Eng
Пірати Карибського моря: Помста Салазара / Pirates of the Caribbean: Dead Men Tell No Tales (2017) 1080p H.265 Ukr/Eng | Sub Eng

Пірати Карибського моря. Колекція / Pirates of the Caribbean: Collection (2003/2006/2007/2011/2017) 1080p H.265 Ukr/Eng | Sub Ukr/Eng


Жанр: фентезі, екшн, комедія, пригодницький
Країна: США
Кінокомпанія: Walt Disney Pictures, Jerry Bruckheimer Films, Infinitum Nihil
Режисер: Хоакім Роннінґ / Joachim Rønning, Еспен Сандберґ / Espen Sandberg
Актори: Джонні Деп / Johnny Depp, Хав’єр Бардем / Javier Bardem, Джеффрі Раш / Geoffrey Rush, Брентон Туейтс / Brenton Thwaites, Кая Скоделаріо / Kaya Scodelario, Орландо Блум / Orlando Bloom, Кіра Найтлі / Keira Knightley, Стівен Ґрем / Stephen Graham, Девід Венем / David Wenham, Кевін МакНеллі / Kevin McNally, Пол МакКартні / Paul McCartney та інші

Сюжет:
Щасливчик капітан Джек Спарроу переживає важкі часи, адже удача його покинула. Колись дуже давно в молодості Джек знищив лютого іспанського борця з піратами капітана Салазара. Цей страшний капітан утік разом зі своєю командою з Диявольського трикутника, щоб знищити всіх піратів, особливо Джека. Єдиний шанс Джека вижити – знайти легендарний тризуб Посейдона. Цей неймовірно сильний артефакт дозволить своєму господареві бути володарем усіх морів. І допоможуть у цьому капітану Джеку Спарроу його нові друзі – Генрі й Каріна Сміт. Неймовірні пригоди Джека Спарроу тривають!

Тривалість: 02:09:07
Якість:

Відео:
кодек: H.265 (HEVC)
розмір кадру: 1920 x 800
бітрейт: 8 727 кб/с
бітова глибина: 10 біт

Увага! Перед завантаженням переконайтесь, що ваш пристрій відтворення (та/або ПЗ) підтримує H.265 (HEVC)

Аудіо # 1:
мова: українська
переклад: професійний дубльований | Студія LeDoyen
кодек: 5.1
бітрейт: 1510 кб/с

Аудіо # 2:
мова: англійська
переклад: оригінал
кодек: 5.1
бітрейт: 1510 кб/с

Субтитри # 1: (Forced)
мова: українська
тип: програмні (м'які)
формат: *.srt

Субтитри # 2-4: (Full, SDH, SDH-Colored)
мова: англійська
тип: програмні (м'які)
формат: *.srt


Info
Код:
General
Unique ID                                : 224938438392521675686206861918324688752 (0xA939914211B78EB7B7A2EE438E248770)
Complete name                            : 5. Pirates of the Caribbean. Dead Men Tell No Tales (2017) 1080p H.265 [UKR_ENG] [Hurtom].
Format                                   :
Format version                           : Version 4
File size                                : 10.6 GiB
Duration                                 : 2 h 9 min
Overall bit rate                         : 11.7 Mb/s
Movie name                               : Пірати Карибського моря: Помста Салазара / Pirates of the Caribbean: Dead Men Tell No Tales (2017)
Encoded date                             : UTC 2020-06-30 15:27:22
Writing application                      : v20.0.0 ('I Am The Sun') 64-bit
Writing library                          : libebml v1.3.5 + v1.4.8
Cover                                    : Yes
Attachments                              : cover

Video
ID                                       : 1
Format                                   : HEVC
Format/Info                              : High Efficiency Video Coding
Format profile                           : Main [email protected]@High
Codec ID                                 : V_MPEGH/ISO/HEVC
Duration                                 : 2 h 9 min
Bit rate                                 : 8 727 kb/s
Width                                    : 1 920 pixels
Height                                   : 800 pixels
Display aspect ratio                     : 2.40:1
Frame rate mode                          : Constant
Frame rate                               : 23.976 (24000/1001) FPS
Color space                              : YUV
Chroma subsampling                       : 4:2:0
Bit depth                                : 10 bits
Bits/(Pixel*Frame)                       : 0.237
Stream size                              : 7.87 GiB (74%)
Title                                    : Пірати Карибського моря: Помста Салазара / Pirates of the Caribbean: Dead Men Tell No Tales (2017)
Writing library                          : x265 3.3+1-g554c887ac:[Windows][MSVC 1924][64 bit] 10bit
Encoding settings                        : cpuid=1111039 / frame-threads=3 / numa-pools=12 / wpp / no-pmode / no-pme / no-psnr / no-ssim / log-level=2 / input-csp=1 / input-res=1920x800 / interlace=0 / total-frames=173917 / level-idc=41 / high-tier=1 / uhd-bd=0 / ref=5 / no-allow-non-conformance / no-repeat-headers / annexb / no-aud / no-hrd / info / hash=0 / no-temporal-layers / open-gop / min-keyint=23 / keyint=240 / gop-lookahead=0 / bframes=8 / b-adapt=2 / b-pyramid / bframe-bias=0 / rc-lookahead=60 / lookahead-slices=4 / scenecut=40 / hist-scenecut=0 / radl=0 / no-splice / no-intra-refresh / ctu=32 / min-cu-size=8 / rect / amp / max-tu-size=32 / tu-inter-depth=4 / tu-intra-depth=4 / limit-tu=1 / rdoq-level=2 / dynamic-rd=0.00 / no-ssim-rd / signhide / no-tskip / nr-intra=0 / nr-inter=0 / no-constrained-intra / no-strong-intra-smoothing / max-merge=4 / limit-refs=2 / limit-modes / me=3 / subme=7 / merange=57 / temporal-mvp / no-frame-dup / no-hme / weightp / weightb / no-analyze-src-pics / deblock=-3:-3 / no-sao / no-sao-non-deblock / rd=6 / selective-sao=0 / no-early-skip / no-rskip / no-fast-intra / no-tskip-fast / no-cu-lossless / no-b-intra / no-splitrd-skip / rdpenalty=0 / psy-rd=2.00 / psy-rdoq=1.00 / no-rd-refine / no-lossless / cbqpoffs=0 / crqpoffs=0 / rc=crf / crf=20.0 / qcomp=0.65 / qpstep=4 / stats-write=0 / stats-read=0 / vbv-maxrate=50000 / vbv-bufsize=50000 / vbv-init=0.9 / crf-max=0.0 / crf-min=0.0 / ipratio=1.40 / pbratio=1.30 / aq-mode=1 / aq-strength=1.00 / no-cutree / zone-count=0 / no-strict-cbr / qg-size=32 / no-rc-grain / qpmax=69 / qpmin=0 / no-const-vbv / sar=1 / overscan=0 / videoformat=5 / range=0 / colorprim=1 / transfer=1 / colormatrix=1 / chromaloc=0 / display-window=0 / cll=0,0 / min-luma=0 / max-luma=1023 / log2-max-poc-lsb=8 / vui-timing-info / vui-hrd-info / slices=1 / no-opt-qp-pps / no-opt-ref-list-length-pps / no-multi-pass-opt-rps / scenecut-bias=0.05 / hist-threshold=0.01 / no-opt-cu-delta-qp / no-aq-motion / no-hdr10 / no-hdr10-opt / no-dhdr10-opt / no-idr-recovery-sei / analysis-reuse-level=0 / analysis-save-reuse-level=0 / analysis-load-reuse-level=0 / scale-factor=0 / refine-intra=0 / refine-inter=0 / refine-mv=1 / refine-ctu-distortion=0 / no-limit-sao / ctu-info=0 / no-lowpass-dct / refine-analysis-type=0 / copy-pic=1 / max-ausize-factor=1.0 / no-dynamic-refine / no-single-sei / no-hevc-aq / no-svt / no-field / qp-adaptation-range=1.00 / no-scenecut-aware-qpconformance-window-offsets / right=0 / bottom=0
Default                                  : Yes
Forced                                   : No
Color range                              : Limited
Color primaries                          : BT.709
Transfer characteristics                 : BT.709
Matrix coefficients                      : BT.709

Audio #1
ID                                       : 2
Format                                   :
Format/Info                              : Digital Theater Systems
Codec ID                                 : A_DTS
Duration                                 : 2 h 9 min
Bit rate mode                            : Constant
Bit rate                                 : 1 509 kb/s
Channel(s)                               : 6 channels
Channel layout                           : C L R Ls Rs LFE
Sampling rate                            : 48.0 kHz
Frame rate                               : 93.750 FPS (512 SPF)
Bit depth                                : 24 bits
Compression mode                         : Lossy
Stream size                              : 1.36 GiB (13%)
Title                                    : / 5.1 Ch / 1509 kbps / ПД / Студія LeDoyen
Language                                 : Ukrainian
Default                                  : Yes
Forced                                   : Yes

Audio #2
ID                                       : 3
Format                                   :
Format/Info                              : Digital Theater Systems
Codec ID                                 : A_DTS
Duration                                 : 2 h 9 min
Bit rate mode                            : Constant
Bit rate                                 : 1 509 kb/s
Channel(s)                               : 6 channels
Channel layout                           : C L R Ls Rs LFE
Sampling rate                            : 48.0 kHz
Frame rate                               : 93.750 FPS (512 SPF)
Bit depth                                : 24 bits
Compression mode                         : Lossy
Stream size                              : 1.36 GiB (13%)
Title                                    : / 5.1 Ch / 1509 kbps / Original
Language                                 : English
Default                                  : No
Forced                                   : No

Text #1
ID                                       : 4
Format                                   : UTF-8
Codec ID                                 : S_TEXT/UTF8
Codec ID/Info                            : UTF-8 Plain Text
Duration                                 : 1 h 59 min
Bit rate                                 : 0 b/s
Count of elements                        : 14
Stream size                              : 747 Bytes (0%)
Title                                    : Forced
Language                                 : Ukrainian
Default                                  : Yes
Forced                                   : Yes

Text #2
ID                                       : 5
Format                                   : UTF-8
Codec ID                                 : S_TEXT/UTF8
Codec ID/Info                            : UTF-8 Plain Text
Duration                                 : 1 h 55 min
Bit rate                                 : 45 b/s
Count of elements                        : 1428
Stream size                              : 38.2 KiB (0%)
Title                                    : Full
Language                                 : English
Default                                  : No
Forced                                   : No

Text #3
ID                                       : 6
Format                                   : UTF-8
Codec ID                                 : S_TEXT/UTF8
Codec ID/Info                            : UTF-8 Plain Text
Duration                                 : 2 h 8 min
Bit rate                                 : 48 b/s
Count of elements                        : 1771
Stream size                              : 45.7 KiB (0%)
Title                                    : SDH
Language                                 : English
Default                                  : No
Forced                                   : No

Text #4
ID                                       : 7
Format                                   : UTF-8
Codec ID                                 : S_TEXT/UTF8
Codec ID/Info                            : UTF-8 Plain Text
Duration                                 : 2 h 8 min
Bit rate                                 : 94 b/s
Count of elements                        : 1692
Stream size                              : 88.9 KiB (0%)
Title                                    : SDH-Colored
Language                                 : English
Default                                  : No
Forced                                   : No

Menu
00:00:00.000                             : en:Father's Curse
00:05:49.515                             : en:"Arrest Him"
00:08:34.222                             : en:Captain Salazar
00:13:40.820                             : en:"Stop That Witch"
00:16:29.154                             : en:Runaway Bank
00:22:33.852                             : en:Bad Luck
00:25:19.267                             : en:"Hidden in the Stairs"
00:28:06.101                             : en:"We Are Free"
00:31:41.774                             : en:Blood Moon
00:33:44.814                             : en:"Looking For A Pirate"
00:37:02.053                             : en:Barbossa's Treasure
00:42:27.711                             : en:"Final Words"
00:49:09.071                             : en:"Cordiality"
00:54:00.278                             : en:Bluffing
00:57:19.394                             : en:"Closer Than You Think"
01:00:38.718                             : en:Salazar's Story
01:08:29.939                             : en:Mutiny
01:11:57.021                             : en:Ghost Sharks
01:16:50.939                             : en:"Unscratchable Itch"
01:19:27.471                             : en:Wedding Day
01:25:04.808                             : en:"Just Believe Her"
01:27:42.173                             : en:"So You're An Orphan"
01:31:43.789                             : en:"Nowhere To Hide"
01:38:22.813                             : en:The Island
01:42:36.775                             : en:Poseidon's Trident
01:47:23.562                             : en:"All Must Divide"
01:52:58.688                             : en:"Let Me Tell You A Tale"
01:59:09.934                             : en:Credits
Світлини




Джерело:
Особиста оцінка: 10 - без зайвих вагань рекомендую всім!


Золотий реліз (завантажене не впливає на рейтинг)
 Трекер:    Зареєстрований   

Завантажити / скачати фільм українською



відео для новачків



 Зареєстрований:   2020-07-08 21:57
 Розмір:   55.89 GB 
 Оцінка фільму:   9.9/10 (Голосів: 137)
   
little_bru 
Новенький


З нами з: 22.04.09
Востаннє: 15.01.21
Повідомлень: 8

2018-12-19 18:00  
нарешті) дякую!
Anonymous 







2018-12-19 19:23  
little_bru
Будь ласка!)

ukurainajin 
Частий відвідувач


З нами з: 17.05.16
Востаннє: 06.01.21
Повідомлень: 30

2018-12-31 15:58  
Саме те, що треба до свята. Дякую!
ke2003099 
Новенький


З нами з: 20.01.18
Востаннє: 13.01.21
Повідомлень: 1

2019-11-25 19:42  
дякую
dimon-2018 
VIP


З нами з: 06.05.18
Востаннє: 15.01.21
Повідомлень: 542

2020-01-13 13:55  
Вітаю. Може, хтось, окремо викласти першу частину в 1080 з дубляжем...Будь ласка...
Anonymous 







2020-01-13 16:49  
dimon-2018
Чому не скачати тільки цей файл з роздачі? В торрент-клієнті можна вибрати файли, які буде завантажено.

dimon-2018 
VIP


З нами з: 06.05.18
Востаннє: 15.01.21
Повідомлень: 542

2020-01-13 19:01  
Anonymous
Мені не потрібно hevc, я хотів скачати звичайний 1080р.

JanusK 
Новенький


З нами з: 15.01.17
Востаннє: 09.01.21
Повідомлень: 24

2020-03-20 21:44  
Ти рятівник! Як завжди!
olimpian1 
VIP


З нами з: 19.10.13
Востаннє: 14.01.21
Повідомлень: 293

2020-04-12 13:05  
Це прекрасно! Особливо дубляж першої частини!
LORD11 
Новенький


З нами з: 05.10.09
Востаннє: 15.01.21
Повідомлень: 5

2020-11-01 21:55  
Привіт! Де можна скачати усі частини в 4К З Українським дубляжем?
kukurudzasergiy 
Новенький


З нами з: 28.05.20
Востаннє: 15.01.21
Повідомлень: 12

2020-11-14 23:14  
Дякую беру в колекцію
[email protected] 
Новенький


З нами з: 12.06.20
Востаннє: 07.01.21
Повідомлень: 1

2021-01-02 10:52  
чи може хтось роздаті 3ю частину? нема швидковсті
Ваш часовий пояс: GMT + 2 Години

Нова тема   Відповісти