Захисник (Сезон 1) / The Protector (Season 1) (2018)

Нові коментарі

Нова тема   Відповісти
Останній раз роздавалося roman.dovhovych (2019-08-17)
Автор Повідомлення
DniproFilm 
VIP


З нами з: 10.10.18
Востаннє: 22.08.19
Повідомлень: 258

2018-12-19 00:22  
Захисник (Сезон 1) / The Protector (Season 1) (2018)

Захисник (Сезон 1) / The Protector (Season 1) (2018)


Жанр: бойовик, фантастика, фентезі
Країна: Туреччина



Кінокомпанія / телеканал: Netflix Studios, O3 Turkey Medya
Режисер: Умут Арал, Гонендж Уянік, Джан Евренол
Актори/ролі озвучують: Чагатай Улусой, Айча Айшин Туран, Мехмет Куртулуш, Хазар Ергючлю, Окан Ялабик, Юрдаер Окур, Мехмет Іілмаз Ак, Джихат Суваріоглу, Джанкат Айдос та інші

Сюжет:
Достатньо оригінальний та навіть цілком прикольний містично-фантастичний трилер про турецький командос, що стоїть на захисті справедливості.
Головний герой – чоловік на ім’я Хакан, який є звичайнісіньким жителем Стамбула. Але одного дня виявляється, що він наділений надзвичайними здібностями і стає фактично супергероєм. Цілком усвідомивши своє призначення, він починає джихад битву з силами темряви, які з’являються нізвідки і загрожують руйнації усій цивілізації…


Тривалість: 1 серія: ~ 40 хв. (цілком серій: 10)
Перелік серій

1. Episode 1
2. Episode 2
3. Episode 3
4. Episode 4
5. Episode 5
6. Episode 6
7. Episode 7
8. Episode 8
9. Episode 9
10. Episode 10
Якість:
Відео:
кодек:
розмір кадру: 720x360
бітрейт: ~1800 кб/с

Аудіо # 1:
мова: українська
переклад: багатоголосий закадровий
кодек: 5.1
бітрейт: 384 кб/с

Джерело озвучення:
DniproFilm
Info

Video
ID : 0
Format : MPEG-4 Visual
Format profile : Advanced [email protected]
Format settings : BVOP2
Format settings, BVOP : 2
Format settings, QPel : No
Format settings, GMC : No warppoints
Format settings, Matrix : Default (H.263)
Muxing mode : Packed bitstream
Codec ID :
Codec ID/Hint :
Duration : 45 min 37 s
Bit rate : 1 770 kb/s
Width : 720 pixels
Height : 360 pixels
Display aspect ratio : 2.000
Frame rate : 24.000 FPS
Color space : YUV
Chroma subsampling : 4:2:0
Bit depth : 8 bits
Scan type : Progressive
Compression mode : Lossy
Bits/(Pixel*Frame) : 0.285
Stream size : 578 MiB (82%)
Writing library : 67

Audio
ID : 1
Format : AC-3
Format/Info : Audio Coding 3
Commercial name : Dolby Digital
Codec ID : 2000
Duration : 45 min 36 s
Bit rate mode : Constant
Bit rate : 384 kb/s
Channel(s) : 6 channels
Channel positions : Front: L C R, Side: L R, LFE
Sampling rate : 48.0 kHz
Frame rate : 31.250 FPS (1536 SPF)
Bit depth : 16 bits
Compression mode : Lossy
Stream size : 125 MiB (18%)
Alignment : Aligned on interleaves
Interleave, duration : 42 ms (1.00 video frame)
Interleave, preload duratio : 512 ms
Service kind : Complete Main
Скріншоти


Увага, присутня відео та аудіореклама.


Джерело: DniproFilm


Авторський реліз (завантажувати можна без реєстрації)
 Трекер:    Зареєстрований   

Завантажити / скачати серіал українською



відео для новачків



 Зареєстрований:   2018-12-19 00:22
 Розмір:   5.93 GB 
 Оцінка серіалу:   6.3/10 (Голосів: 6)
   
don pedro 
Попереджень: 1
Попереджень: 1 


З нами з: 29.06.11
Востаннє: 23.08.19
Повідомлень: 14233

2018-12-19 00:26  
До речі, правильний вибір для озвучення: турецькі серіали - чи не найпопулярніші в Україні.
MasterYura 
Відео Гуртом - фільмокрай
Відео Гуртом - фільмокрай


З нами з: 21.11.09
Востаннє: 22.08.19
Повідомлень: 1052

2018-12-19 14:54  
don pedro
думаю турецькі драми/мелодрами популярні в Україні - а от екшен, бойовики, фантастика - щось сумніваюсь )

Vitt 
Свій


З нами з: 17.01.11
Востаннє: 22.08.19
Повідомлень: 78

2018-12-19 19:22  
MasterYura написано:
а от екшен, бойовики, фантастика - щось сумніваюсь )


І правильно сумніваєтесь.
Після перегляду 5-ти серій: серіал слабенький(до Європи та Америки ще далеко), трохи затягнутий, багато говорять, екшену мало.
Дивлюсь далі...

Vitt 
Свій


З нами з: 17.01.11
Востаннє: 22.08.19
Повідомлень: 78

2018-12-20 08:01  
Додивився.
5-6/10.
Досить непогано, та їм ще є куди рости Happy

taksist 
VIP


З нами з: 10.12.12
Востаннє: 22.08.19
Повідомлень: 255

2019-02-09 00:50  
не можу заснути, мучає запитання - для чого закривати одне око коли кидаєш ножа...
не можу заснути...

Ваш часовий пояс: GMT + 2 Години

Нова тема   Відповісти