Захисник (Сезон 1) / The Protector (Season 1) (2018) 720p Ukr/Tur

Нові коментарі

Нова тема   Відповісти
Останній раз роздавалося coltojkee (2020-12-03)
Автор Повідомлення
DniproFilm 
VIP


З нами з: 10.10.18
Востаннє: 03.12.20
Повідомлень: 446

2018-12-18 23:22  
Захисник (Сезон 1) / The Protector (Season 1) (2018) 720p Ukr/Tur

Захисник (Сезон 1) / The Protector (Season 1) (2018) 720p Ukr/Tur


Жанр: бойовик, фантастика, фентезі
Країна: Туреччина



Кінокомпанія / телеканал: Netflix Studios, O3 Turkey Medya
Режисер: Умут Арал, Гонендж Уянік, Джан Евренол
Актори/ролі озвучують: Чагатай Улусой, Айча Айшин Туран, Мехмет Куртулуш, Хазар Ергючлю, Окан Ялабик, Юрдаер Окур, Мехмет Іілмаз Ак, Джихат Суваріоглу, Джанкат Айдос та інші

Сюжет:
Достатньо оригінальний та навіть цілком прикольний містично-фантастичний трилер про турецький командос, що стоїть на захисті справедливості.
Головний герой – чоловік на ім’я Хакан, який є звичайнісіньким жителем Стамбула. Але одного дня виявляється, що він наділений надзвичайними здібностями і стає фактично супергероєм. Цілком усвідомивши своє призначення, він починає джихад битву з силами темряви, які з’являються нізвідки і загрожують руйнації усій цивілізації…


Тривалість: 1 серія: ~ 40 хв. (цілком серій: 10)
Перелік серій

1. Episode 1
2. Episode 2
3. Episode 3
4. Episode 4
5. Episode 5
6. Episode 6
7. Episode 7
8. Episode 8
9. Episode 9
10. Episode 10
Якість:
Відео:
кодек:
розмір кадру: 1280x640
бітрейт: ~4000 кб/с

Аудіо # 1:
мова: українська
переклад: багатоголосий закадровий
кодек: 5.1
бітрейт: 384 кб/с

Аудіо # 2:
мова: турецька
переклад: оригінал
кодек: 5.1
бітрейт: 640 кб/с

Джерело озвучення:
DniproFilm
Info

Video
ID : 1
Format : AVC
Format/Info : Advanced Video Codec
Format profile : [email protected]
Format settings : CABAC / 4 Ref Frames
Format settings, CABAC : Yes
Format settings, ReFrames : 4 frames
Codec ID : V_MPEG4/ISO/AVC
Duration : 45 min 37 s
Bit rate : 3 926 kb/s
Width : 1 280 pixels
Height : 640 pixels
Display aspect ratio : 2.000
Frame rate mode : Constant
Frame rate : 24.000 FPS
Color space : YUV
Chroma subsampling : 4:2:0
Bit depth : 8 bits
Scan type : Progressive
Bits/(Pixel*Frame) : 0.200
Stream size : 1.25 GiB (79%)
Language : English
Default : Yes
Forced : No
Color range : Limited
Color primaries : BT.709
Transfer characteristics : BT.709
Matrix coefficients : BT.709

Audio #1
ID : 2
Format : AC-3
Format/Info : Audio Coding 3
Commercial name : Dolby Digital
Codec ID : A_AC3
Duration : 45 min 37 s
Bit rate mode : Constant
Bit rate : 384 kb/s
Channel(s) : 6 channels
Channel positions : Front: L C R, Side: L R, LFE
Sampling rate : 48.0 kHz
Frame rate : 31.250 FPS (1536 SPF)
Bit depth : 16 bits
Compression mode : Lossy
Stream size : 125 MiB (8%)
Title : DniproFilm
Language : Ukrainian
Service kind : Complete Main
Default : Yes
Forced : No

Audio #2
ID : 3
Format : AC-3
Format/Info : Audio Coding 3
Codec ID : A_AC3
Duration : 45 min 6 s
Bit rate : 640 kb/s
Channel(s) : 6 channels
Sampling rate : 48.0 kHz
Frame rate : 31.250 FPS (1536 SPF)
Compression mode : Lossy
Stream size : 206 MiB (13%)
Language : Turkish
Default : No
Forced : No
Скріншоти


Увага, присутня відео та аудіореклама.


Джерело: DniproFilm


Авторський реліз (завантажувати можна без реєстрації)
 Трекер:    Зареєстрований   

Завантажити / скачати серіал українською



відео для новачків



 Зареєстрований:   2018-12-18 23:22
 Розмір:   13.63 GB 
 Оцінка серіалу:   9.4/10 (Голосів: 5)
   
GlossaVK 
Свій


З нами з: 26.06.13
Востаннє: 04.12.20
Повідомлень: 79

2019-02-19 18:36  
З серіалу в серіал ДніпроФільм повторює одну й та ж фразу: йти, бігти, тощо, ЗА кимось.
Це означає наздоганяти або слідувати за кимось.
Йти, бігти, тощо, ПО когось/щось.
Це означає щоб взяти, принести, тощо, когось/щось.
Якщо ДніпроФільм почне виправляти свою диверсійну діяльність з насаджування кацапізмів, якими рясніють його переклади та озвучення, у свідомість українців, то це вже буде маленький плюс.
Як це донести до ДніпроФільму?

кокошнік 
Попереджень: 1
Попереджень: 1 


З нами з: 09.06.15
Востаннє: 27.05.20
Повідомлень: 2139

2019-02-20 23:50  
GlossaVK написано:

З серіалу в серіал ДніпроФільм повторює одну й та ж фразу: йти, бігти, тощо, ЗА кимось.
Це означає наздоганяти або слідувати за кимось.
Йти, бігти, тощо, ПО когось/щось.
Це означає щоб взяти, принести, тощо, когось/щось.
Якщо ДніпроФільм почне виправляти свою диверсійну діяльність з насаджування кацапізмів, якими рясніють його переклади та озвучення, у свідомість українців, то це вже буде маленький плюс.
Як це донести до ДніпроФільму?

Шедеврально,
Якшо буває, що "йти" чи "бігти" у Дніпрофільмові "за кимсь",
То згідно вас має бути "йти" чи "бігти" "по когось" чи "щось",
А насправді "біжать" чи "йдуть" "по чім\по чому" (бігти\йти по Землі), та "хто" "біжить" чи "йде" по Землі (хто йти\бігти по Землі буде чи не буде чи йти\бігти збирається чи ні... ітд.).

Ваш часовий пояс: GMT + 2 Години

Нова тема   Відповісти