Захисник (Сезон 1) / The Protector (Season 1) (2018) 1080p Ukr/Tur

Нові коментарі

Нова тема   Відповісти
Автор Повідомлення
DniproFilm 
VIP


З нами з: 10.10.18
Востаннє: 04.12.20
Повідомлень: 446

2018-12-18 23:22  
Захисник (Сезон 1) / The Protector (Season 1) (2018) 1080p Ukr/Tur

Захисник (Сезон 1) / The Protector (Season 1) (2018) 1080p Ukr/Tur


Жанр: бойовик, фантастика, фентезі
Країна: Туреччина



Кінокомпанія / телеканал: Netflix Studios, O3 Turkey Medya
Режисер: Умут Арал, Гонендж Уянік, Джан Евренол
Актори/ролі озвучують: Чагатай Улусой, Айча Айшин Туран, Мехмет Куртулуш, Хазар Ергючлю, Окан Ялабик, Юрдаер Окур, Мехмет Іілмаз Ак, Джихат Суваріоглу, Джанкат Айдос та інші

Сюжет:
Достатньо оригінальний та навіть цілком прикольний містично-фантастичний трилер про турецький командос, що стоїть на захисті справедливості.
Головний герой – чоловік на ім’я Хакан, який є звичайнісіньким жителем Стамбула. Але одного дня виявляється, що він наділений надзвичайними здібностями і стає фактично супергероєм. Цілком усвідомивши своє призначення, він починає джихад битву з силами темряви, які з’являються нізвідки і загрожують руйнації усій цивілізації…


Тривалість: 1 серія: ~ 40 хв. (цілком серій: 10)
Перелік серій

1. Episode 1
2. Episode 2
3. Episode 3
4. Episode 4
5. Episode 5
6. Episode 6
7. Episode 7
8. Episode 8
9. Episode 9
10. Episode 10
Якість:
Відео:
кодек:
розмір кадру: 1920x960
бітрейт: ~7000 кб/с

Аудіо # 1:
мова: українська
переклад: багатоголосий закадровий
кодек: 5.1
бітрейт: 384 кб/с

Аудіо # 2:
мова: турецька
переклад: оригінал
кодек: 5.1
бітрейт: 640 кб/с

Джерело озвучення:
DniproFilm
Info

Video
ID : 1
Format : AVC
Format/Info : Advanced Video Codec
Format profile : [email protected]
Format settings : CABAC / 4 Ref Frames
Format settings, CABAC : Yes
Format settings, ReFrames : 4 frames
Codec ID : V_MPEG4/ISO/AVC
Duration : 45 min 37 s
Bit rate : 6 876 kb/s
Width : 1 920 pixels
Height : 960 pixels
Display aspect ratio : 2.000
Frame rate mode : Constant
Frame rate : 24.000 FPS
Color space : YUV
Chroma subsampling : 4:2:0
Bit depth : 8 bits
Scan type : Progressive
Bits/(Pixel*Frame) : 0.155
Stream size : 2.19 GiB (87%)
Language : English
Default : Yes
Forced : No
Color range : Limited
Color primaries : BT.709
Transfer characteristics : BT.709
Matrix coefficients : BT.709

Audio #1
ID : 2
Format : AC-3
Format/Info : Audio Coding 3
Commercial name : Dolby Digital
Codec ID : A_AC3
Duration : 45 min 37 s
Bit rate mode : Constant
Bit rate : 384 kb/s
Channel(s) : 6 channels
Channel positions : Front: L C R, Side: L R, LFE
Sampling rate : 48.0 kHz
Frame rate : 31.250 FPS (1536 SPF)
Bit depth : 16 bits
Compression mode : Lossy
Stream size : 125 MiB (5%)
Title : DniproFilm
Language : Ukrainian
Service kind : Complete Main
Default : Yes
Forced : No

Audio #2
ID : 3
Format : AC-3
Format/Info : Audio Coding 3
Codec ID : A_AC3
Duration : 45 min 6 s
Bit rate : 640 kb/s
Channel(s) : 6 channels
Sampling rate : 48.0 kHz
Frame rate : 31.250 FPS (1536 SPF)
Compression mode : Lossy
Stream size : 206 MiB (8%)
Language : Turkish
Default : No
Forced : No
Скріншоти


Увага, присутня відео та аудіореклама.


Джерело: DniproFilm


Авторський реліз (завантажувати можна без реєстрації)
 Трекер:    Зареєстрований   

Завантажити / скачати серіал українською



відео для новачків



 Зареєстрований:   2018-12-18 23:22
 Розмір:   21.75 GB 
 Оцінка серіалу:   7.3/10 (Голосів: 4)
   
Ваш часовий пояс: GMT + 2 Години

Нова тема   Відповісти