Встигнути до / Due Date (2010) AVC Ukr/Eng | Sub Ukr/Eng

Нові коментарі

Нова тема   Відповісти
Автор Повідомлення
staf777 
Відео Гуртом - підтримка та поширення
Відео Гуртом - підтримка та поширення


З нами з: 16.11.16
Востаннє: 22.05.19
Повідомлень: 2379

2018-12-18 22:54  
Встигнути до / Due Date (2010) AVC Ukr/Eng | Sub Ukr/Eng

Встигнути до / Due Date (2010) AVC Ukr/Eng | Sub Ukr/Eng


Жанр: комедія
Країна: Країна: США



Кінокомпанія: Warner Bros. Pictures, Legendary Pictures, Green Hat Films; мейджор – Warner Bros
Режисер: Тодд Філліпс (Todd Phillips)
Актори: Роберт Дауні-молодший (Robert Downey Jr.), Зак Ґаліфіанакіс (Zach Galifianakis), Мішель Монаґан (Michelle Monaghan), Джеймі Фокс (Jamie Foxx), Джульєтт Льюіс (Juliette Lewis)

Сюжет:
Героя чекає не просто випробування дорогою і часом, але і перевірка на міцність його нервів супутником, який не проти повеселитися і вивести з себе майбутнього батька.


Тривалість: 01:35:15
Якість: AVC
Відео:
кодек:
розмір кадру: 1024x426
бітрейт: 2443 кб/с

Аудіо # 1:
мова: українська
переклад: професійний дубльований
кодек: 5.1
бітрейт: 448 кб/с

Аудіо # 2:
мова: англійська
переклад: оригінал
кодек: 5.1
бітрейт: 448 кб/с

Джерело озвучення:


Субтитри:
мова: українська
тип: програмні (м'які)
формат: *.srt

Субтитри:
мова: англійська
тип: програмні (м'які)
формат: *.srt
MI
General
Unique ID : 18704311896459136538396230302215941693 (0xE1251C6A077F3893F86CD77C4FBAE3D)
Complete name : N:\Фільми AVC\Комедія\Due Date (2010) AVC [UKR][ENG][Hurtom].
Format :
Format version : Version 4 / Version 2
File size : 2.22 GiB
Duration : 1 h 35 min
Overall bit rate : 3 342 kb/s
Movie name : Due Date (2010) AVC [UKR][ENG][Hurtom]
Encoded date : UTC 2018-12-18 16:22:05
Writing application : v24.0.0 ('Beyond The Pale') 64-bit
Writing library : libebml v1.3.6 + v1.4.9
Cover : Yes
Attachments : cover.jpg

Video
ID : 1
Format : AVC
Format/Info : Advanced Video Codec
Format profile : [email protected]
Format settings : CABAC / 8 Ref Frames
Format settings, CABAC : Yes
Format settings, ReFrames : 8 frames
Codec ID : V_MPEG4/ISO/AVC
Duration : 1 h 35 min
Bit rate : 2 443 kb/s
Width : 1 024 pixels
Height : 426 pixels
Display aspect ratio : 2.40:1
Frame rate mode : Constant
Frame rate : 23.976 (24000/1001) FPS
Color space : YUV
Chroma subsampling : 4:2:0
Bit depth : 8 bits
Scan type : Progressive
Bits/(Pixel*Frame) : 0.234
Stream size : 1.63 GiB (73%)
Title : (AVC) / MPEG-4 AVC/ / 2443 kbps / 1024x426 / 23.976 fps
Writing library : core 114 r1913 5fd3dce
Encoding settings : cabac=1 / ref=8 / deblock=1:-1:-1 / analyse=0x3:0x133 / me=umh / subme=10 / psy=1 / psy_rd=1.00:0.00 / mixed_ref=1 / me_range=48 / chroma_me=1 / trellis=2 / 8x8dct=1 / cqm=0 / deadzone=21,11 / fast_pskip=0 / chroma_qp_offset=-2 / threads=6 / sliced_threads=0 / nr=0 / decimate=1 / interlaced=0 / constrained_intra=0 / bframes=8 / b_pyramid=2 / b_adapt=2 / b_bias=0 / direct=3 / weightb=1 / open_gop=0 / weightp=2 / keyint=250 / keyint_min=23 / scenecut=40 / intra_refresh=0 / rc=2pass / mbtree=0 / bitrate=2443 / ratetol=1.0 / qcomp=0.60 / qpmin=10 / qpmax=51 / qpstep=4 / cplxblur=20.0 / qblur=0.5 / ip_ratio=1.40 / pb_ratio=1.30 / aq=2:1.00 / zones=129477,137040,q=36
Language : English
Default : Yes
Forced : Yes

Audio #1
ID : 2
Format : AC-3
Format/Info : Audio Coding 3
Codec ID : A_AC3
Duration : 1 h 35 min
Bit rate mode : Constant
Bit rate : 448 kb/s
Channel(s) : 6 channels
Channel positions : Front: L C R, Side: L R, LFE
Sampling rate : 48.0 kHz
Frame rate : 31.250 FPS (1536 SPF)
Bit depth : 16 bits
Compression mode : Lossy
Stream size : 305 MiB (13%)
Title : Дубляж Blu-ray CEE [ 5.1; 448 кб/с]
Language : Ukrainian
Service kind : Complete Main
Default : Yes
Forced : Yes

Audio #2
ID : 3
Format : AC-3
Format/Info : Audio Coding 3
Codec ID : A_AC3
Duration : 1 h 35 min
Bit rate mode : Constant
Bit rate : 448 kb/s
Channel(s) : 6 channels
Channel positions : Front: L C R, Side: L R, LFE
Sampling rate : 48.0 kHz
Frame rate : 31.250 FPS (1536 SPF)
Bit depth : 16 bits
Compression mode : Lossy
Stream size : 305 MiB (13%)
Title : Original (Eng) / / 6 ch / 448 kbps / 48 kHz
Language : English
Service kind : Complete Main
Default : No
Forced : No

Text #1
ID : 4
Format : UTF-8
Codec ID : S_TEXT/UTF8
Codec ID/Info : UTF-8 Plain Text
Duration : 1 h 29 min
Bit rate : 134 b/s
Count of elements : 1492
Stream size : 87.9 KiB (0%)
Title : від karvai0 [Hurtom]
Language : Ukrainian
Default : No
Forced : No

Text #2
ID : 5
Format : UTF-8
Codec ID : S_TEXT/UTF8
Codec ID/Info : UTF-8 Plain Text
Duration : 1 h 34 min
Bit rate : 77 b/s
Count of elements : 1493
Stream size : 53.7 KiB (0%)
Title : Full (Eng) / S_TEXT/UTF8
Language : English
Default : No
Forced : No

Menu
00:00:00.000 : :Chapter 01
00:09:58.055 : :Chapter 02
00:18:37.157 : :Chapter 03
00:30:19.943 : :Chapter 04
00:40:59.415 : :Chapter 05
00:50:43.457 : :Chapter 06
00:58:39.807 : :Chapter 07
01:08:47.790 : :Chapter 08
01:18:34.418 : :Chapter 09
01:28:30.555 : :Chapter 10






Джерело: &
Особиста оцінка: 0 - не дивився
ЗАЛИШАЙТЕСЬ ЯКОМОГА ДОВШЕ НА РОЗДАЧІ!

СКАЧАВ САМ - ДАЙ СКАЧАТИ ІНШИМ



 Трекер:    Зареєстрований   

Завантажити / скачати фільм українською



відео для новачків



 Зареєстрований:   2018-12-18 22:54
 Розмір:   2.22 GB 
 Оцінка фільму:   8.5/10 (Голосів: 13)
   
Інші релізи
   Встигнути до / Due Date (2010) 1080p Ukr/Eng | Sub Eng/Ukr famous37  1 / 0   8.22 GB   2015-11-30 19:35 
   Встигнути до / Due Date (2010) 720p Ukr/Eng | Sub Multi leroykendall  8 / 0   5.24 GB   2012-01-05 11:35 
   Встигнути до... / Due Date (2010) Ukr | Sub Ukr/Eng karvai0  8 / 0   1.45 GB   2011-03-08 17:15 
Ваш часовий пояс: GMT + 2 Години

Нова тема   Відповісти