Шимпанзе / Chimpanzee (2012) AVC Ukr/Eng | sub Eng

Нові коментарі

Нова тема   Відповісти
Автор Повідомлення
NemoInFire 
Відео Гуртом - фільмокрай
Відео Гуртом - фільмокрай


З нами з: 12.11.07
Востаннє: 22.10.19
Повідомлень: 634

2018-12-18 19:54  
Шимпанзе / Chimpanzee (2012) AVC Ukr/Eng | sub Eng

Шимпанзе / Chimpanzee (2012) AVC Ukr/Eng | sub Eng


Жанр: документальний
Країна: Об'єднана Республіка Танзанія, США

Телеканал / кіностудія: Great Ape Productions
Режисер: Аластер Фотергіл, Марк Лінфілд
Актори: Тім Аллен

Сюжет:
Історія про малого шимпанзе.


Тривалість: 01:18:15
Якість: AVC
Відео:
кодек:
розмір кадру: 1024 х 576
бітрейт: 3028 кб/с

Аудіо:
мова: українська
переклад: професійний дубльований
кодек: 2.0
бітрейт: 192 кб/с
Інформація про озвучення

Переклад: Ірина Кодьман
Режисер: Людмила Ардельян
Звукорежисер: Станіслав Ногін
Звукорежисер перезапису: Станіслав Ногін
Ролі дублювали: Олесь Гімбаржевський, Ігор Волков, Максим Запісочний, Людмила Ардельян.
Фільм дубльовано студією LeDoyen.
Аудіо 2:
мова: англійська
переклад: оригінал
кодек: 5.1
бітрейт: 448 кб/с

Субтитри :
мова: англійська
тип: програмні (м'які)
формат: *.srt
Info
General
Unique ID : 74231821519557185678563741731547945033 (0x37D8875EB8D255A027B141504F729849)
Complete name : D:\Chimpanzee (2012) AVC [UKR_ENG] [Hurtom].
Format :
Format version : Version 4
File size : 2.01 GiB
Duration : 1 h 18 min
Overall bit rate : 3 670 kb/s
Encoded date : UTC 2018-11-25 11:50:31
Writing application : v28.2.0 ('The Awakening') 64-bit
Writing library : libebml v1.3.6 + v1.4.9

Video
ID : 1
Format : AVC
Format/Info : Advanced Video Codec
Format profile : [email protected]
Format settings : CABAC / 9 Ref Frames
Format settings, CABAC : Yes
Format settings, RefFrames : 9 frames
Codec ID : V_MPEG4/ISO/AVC
Duration : 1 h 18 min
Bit rate : 3 028 kb/s
Width : 1 024 pixels
Height : 576 pixels
Display aspect ratio : 16:9
Frame rate mode : Constant
Frame rate : 23.976 (24000/1001) FPS
Color space : YUV
Chroma subsampling : 4:2:0
Bit depth : 8 bits
Scan type : Progressive
Bits/(Pixel*Frame) : 0.214
Stream size : 1.66 GiB (83%)
Writing library : core 125 r2200 999b753
Encoding settings : cabac=1 / ref=9 / deblock=1:-2:-1 / analyse=0x3:0x113 / me=umh / subme=10 / psy=1 / psy_rd=1.00:0.10 / mixed_ref=1 / me_range=32 / chroma_me=1 / trellis=2 / 8x8dct=1 / cqm=0 / deadzone=21,11 / fast_pskip=1 / chroma_qp_offset=-3 / threads=3 / lookahead_threads=1 / sliced_threads=0 / nr=0 / decimate=1 / interlaced=0 / bluray_compat=0 / constrained_intra=0 / bframes=9 / b_pyramid=2 / b_adapt=2 / b_bias=0 / direct=3 / weightb=1 / open_gop=0 / weightp=2 / keyint=240 / keyint_min=23 / scenecut=40 / intra_refresh=0 / rc_lookahead=80 / rc=crf / mbtree=1 / crf=20.0 / qcomp=0.65 / qpmin=10 / qpmax=51 / qpstep=4 / vbv_maxrate=50000 / vbv_bufsize=62500 / crf_max=0.0 / nal_hrd=none / ip_ratio=1.40 / aq=2:1.00
Language : English
Default : Yes
Forced : No

Audio #1
ID : 2
Format : AC-3
Format/Info : Audio Coding 3
Commercial name : Dolby Digital
Codec ID : A_AC3
Duration : 1 h 18 min
Bit rate mode : Constant
Bit rate : 192 kb/s
Channel(s) : 2 channels
Channel layout : L R
Sampling rate : 48.0 kHz
Frame rate : 31.250 FPS (1536 SPF)
Bit depth : 16 bits
Compression mode : Lossy
Stream size : 107 MiB (5%)
Title : 2.0 @ 192 kbps
Language : Ukrainian
Service kind : Complete Main
Default : Yes
Forced : Yes

Audio #2
ID : 3
Format : AC-3
Format/Info : Audio Coding 3
Commercial name : Dolby Digital
Codec ID : A_AC3
Duration : 1 h 18 min
Bit rate mode : Constant
Bit rate : 448 kb/s
Channel(s) : 6 channels
Channel layout : L R C LFE Ls Rs
Sampling rate : 48.0 kHz
Frame rate : 31.250 FPS (1536 SPF)
Bit depth : 16 bits
Compression mode : Lossy
Stream size : 251 MiB (12%)
Title : 5.1 448 Kbps
Language : English
Service kind : Complete Main
Default : No
Forced : No

Text
ID : 4
Format : UTF-8
Codec ID : S_TEXT/UTF8
Codec ID/Info : UTF-8 Plain Text
Duration : 1 h 13 min
Bit rate : 36 b/s
Count of elements : 534
Stream size : 19.4 KiB (0%)
Language : English
Default : No
Forced : No
Скріншоти








Джерело:
Особиста оцінка: не дивився


 Трекер:    Зареєстрований   

Завантажити / скачати торрент



відео для новачків



 Зареєстрований:   2018-12-18 19:54
 Розмір:   2.01 GB 
 Оцінка:   10/10 (Голосів: 2)
   
Ваш часовий пояс: GMT + 2 Години

Нова тема   Відповісти