Sorrowful Land - I Remember (2018) [] | Atmospheric doom / Death metal

Нові коментарі

Нова тема   Відповісти
Останній раз роздавалося kolpavel (2019-01-21)
Автор Повідомлення
kolpavel 
VIP


З нами з: 04.05.14
Востаннє: 21.01.19
Повідомлень: 1225

2018-12-17 22:22  
Sorrowful Land - I Remember (2018) [] | Atmospheric doom / Death metal

Sorrowful Land - I Remember (2018) [] | Atmospheric doom / Death metal


Стиль: Doom Death metal
Країна, місто: Україна, Харкiв
Видавець: Solitude Productions (SP. 138-18)
Виконавці:

Макс Молодцов - вся музика, тексти пісень, вокал, гітара, бас, клавішні, драм-програмування.

Сесійні музиканти:

Kaivan Saraei - вокал треку 1.
Daniel Neagoe - вокал треку 2.
Evander Sinque - вокал треку 4.
Vladislav Shahin - вокал треку 5.
Daniel Arvidsson - вокал треку 6.
Vito Marchese - гiтара трек 5.

Пісні:

    01. And Wilt Thou Weep When I Am Low? - 08:52
    02. When The World's Gone Cold. - 07:08
    03. A Father I Never Had. (07:32
    04. Weep On, Weep On. - 07:06
    05. I Am The Only Being Whose Doom. - 08:31
    06. The Kingdom Of Nothingness. - 07:53

Тривалість: 00:47:02
Мова: англійська
Аудіо-кодек:
Бітрейт: 872 кб/с
Джерело: трекер
Додаткова інформація:
EAC
Exact Audio Copy V1.3 from 2. September 2016

EAC extraction logfile from 30. November 2018, 10:37

Sorrowful Land / I Remember

Used drive : PIONEER DVD-RW DVR-111D Adapter: 1 ID: 0

Read mode : Secure
Utilize accurate stream : Yes
Defeat audio cache : Yes
Make use of C2 pointers : No

Read offset correction : 48
Overread into Lead-In and Lead-Out : No
Fill up missing offset samples with silence : Yes
Delete leading and trailing silent blocks : No
Null samples used in CRC calculations : Yes
Used interface : Native Win32 interface for Win NT & 2000

Used output format : User Defined Encoder
Selected bitrate : 1024 kBit/s
Quality : High
Add ID3 tag : No
Command line compressor : D:\\.exe
Additional command line options : -V -8 -T "Date=%year%" -T "Genre=%genre%" %source%

TOC of the extracted CD

Track | Start | Length | Start sector | End sector
---------------------------------------------------------
1 | 0:00.00 | 8:52.37 | 0 | 39936
2 | 8:52.37 | 7:07.38 | 39937 | 71999
3 | 16:00.00 | 7:31.42 | 72000 | 105866
4 | 23:31.42 | 7:06.12 | 105867 | 137828
5 | 30:37.54 | 8:30.58 | 137829 | 176136
6 | 39:08.37 | 7:53.24 | 176137 | 211635

Range status and errors

Selected range

Filename D:\Rips from Dаrkmind\Sorrowful Land - I Remember.wav

Peak level 100.0 %
Extraction speed 2.5 X
Range quality 100.0 %
Test CRC 49A01364
Copy CRC 49A01364
Copy OK

No errors occurred

AccurateRip summary

Track 1 not present in database
Track 2 not present in database
Track 3 not present in database
Track 4 not present in database
Track 5 not present in database
Track 6 not present in database

None of the tracks are present in the AccurateRip database

End of status report

---- CUETools DB Plugin V2.1.6

[CTDB TOCID: DH6r_YdyyuXYl8f.y6M6BRngszE-] found
Submit result: DH6r_YdyyuXYl8f.y6M6BRngszE- has been confirmed
Track | CTDB Status
1 | (1/1) Accurately ripped
2 | (1/1) Accurately ripped
3 | (1/1) Accurately ripped
4 | (1/1) Accurately ripped
5 | (1/1) Accurately ripped
6 | (1/1) Accurately ripped

==== Log checksum 03CB40C3C74ACE676257F42CF376539784683F95EAC13A4D787720527F1A0BBC ====
Лог якостi
-----------------------

DON'T MODIFY THIS FILE

-----------------------

PERFORMER: auCDtect Task Manager, ver. 1.6.0 RC1 build 1.6.0.1
Copyright (c) 2008-2010 y-soft. All rights reserved
http://y-soft.org

ANALYZER: auCDtect: CD records authenticity detector, version 0.8.2
Copyright (c) 2004 Oleg Berngardt. All rights reserved.
Copyright (c) 2004 Alexander Djourik. All rights reserved.

FILE: Sorrowful Land - I Remember.
Size: 307927081 Hash: 1D733DA2655DDC641B98057B82B8A831 Accuracy: -m0
Conclusion: CDDA 100%
Signature: 35DE27DDAAFFBA94304D2726E8157D192776F546

Другий повноформатний альбом української атмосферної doom death metal групи демонструє стрімкий творчий злет музиканта, який стояв за ім'ям Sorrowful Land - Макса Молодцова. Кожна композиція має свій неповторний звучанням і настрiй, підкреслити які допомагають запрошені вокалісти з відомих груп, це Kaivan Saraei (A Dream Of Poe), Daniel Neagoe (Clouds, Eye Of Solitude, Shape Of Despair), Evander Sinque (Who Dies In Siberian Slush , Decay Of Reality, Forbidden Shape), Vladislav Shahin (Mournful Gust, Autumnia), Daniel Arvidsson (Draconian, Mammoth Storm). Гостьове соло на гітарі в одному з треків виконав Vito Marchese (Novembers Doom, The Kahless Clone). Цей альбом стане хорошим подарунком для всіх любителів doom death metal!
Якщо Ви справді бажаєте підтримати українське - після прослуховування, якщо музика вам сподобалась, придбайте ліцензійний диск. Підтримаймо вітчизняних виконавців!


Фріліч (завантажене не впливає на рейтинг)
 Трекер:    Зареєстрований   

Завантажити / скачати українську музику



відео для новачків



 Зареєстрований:   2018-12-17 22:22
 Розмір:   408 MB 
 Оцінка музики:   10/10 (Голосів: 2)
   
Ваш часовий пояс: GMT + 2 Години

Нова тема   Відповісти