Хроніки Різдва / The Christmas Chronicles (2018)

Нові коментарі

Нова тема   Відповісти
Автор Повідомлення
DniproFilm 
Поважний учасник


З нами з: 10.10.18
Востаннє: 10.05.19
Повідомлень: 248

2018-12-17 22:53  
Хроніки Різдва / The Christmas Chronicles (2018)

Хроніки Різдва / The Christmas Chronicles (2018)


Жанр: фентезі, комедія, пригодницький, сімейний
Країна: США



Кінокомпанія: 1492 Pictures, Madhouse Entertainment, Netflix
Режисер: Клей Кертіс
Актори: Курт Расселл, Кімберлі Вільямс, Олівер Хадсон, Дербі Кемпл, Ламон Морріс, Мартін Роуч, Велла Ловелл, Лорен Колінз, Голді Хоун та інші

Сюжет:
Тедді та Кейт Пріс хочуть довести існування Санта-Клауса. Замість милого дідуся діти знаходять гострого на язик та харизматичного господаря Різдва. Разом із Сантою вони відправляються у чарівну подорож та намагаються врятувати улюблене свято.


Тривалість: 01:43:53

Якість:
Відео:
кодек:
розмір кадру: 720x392
бітрейт: 1797 кб/с

Аудіо # 1:
мова: українська
переклад: багатоголосий закадровий
кодек: 5.1
бітрейт: 384 кб/с

Джерело озвучення:
DniproFilm
Info

Video
ID : 0
Format : MPEG-4 Visual
Format profile : Advanced [email protected]
Format settings : BVOP2
Format settings, BVOP : 2
Format settings, QPel : No
Format settings, GMC : No warppoints
Format settings, Matrix : Default (H.263)
Muxing mode : Packed bitstream
Codec ID :
Codec ID/Hint :
Duration : 1 h 43 min
Bit rate : 1 797 kb/s
Width : 720 pixels
Height : 392 pixels
Display aspect ratio : 1.85:1
Frame rate : 24.000 FPS
Color space : YUV
Chroma subsampling : 4:2:0
Bit depth : 8 bits
Scan type : Progressive
Compression mode : Lossy
Bits/(Pixel*Frame) : 0.265
Stream size : 1.30 GiB (82%)
Writing library : 67

Audio
ID : 1
Format : AC-3
Format/Info : Audio Coding 3
Commercial name : Dolby Digital
Codec ID : 2000
Duration : 1 h 43 min
Bit rate mode : Constant
Bit rate : 384 kb/s
Channel(s) : 6 channels
Channel positions : Front: L C R, Side: L R, LFE
Sampling rate : 48.0 kHz
Frame rate : 31.250 FPS (1536 SPF)
Bit depth : 16 bits
Compression mode : Lossy
Stream size : 285 MiB (18%)
Alignment : Aligned on interleaves
Interleave, duration : 42 ms (1.00 video frame)
Interleave, preload duratio : 512 ms
Service kind : Complete Main
Скріншоти


Увага, присутня відео та аудіореклама 18+


Джерело: DniproFilm


Авторський реліз (завантажувати можна без реєстрації)
 Трекер:    Зареєстрований   

Завантажити / скачати фільм українською



відео для новачків



 Зареєстрований:   2018-12-17 22:53
 Розмір:   1.59 GB 
 Оцінка фільму:   9.2/10 (Голосів: 123)
   
R7DER 
Частий відвідувач


З нами з: 25.05.12
Востаннє: 27.05.19
Повідомлень: 27

2018-12-18 11:27  
Відмінне кіно для зимового вечора
Trina_D 
Частий відвідувач


З нами з: 24.05.10
Востаннє: 06.05.19
Повідомлень: 36

2018-12-18 11:43  
Дякую за реліз, та за filmix
Did Kokos 
VIP


З нами з: 27.05.13
Востаннє: 26.05.19
Повідомлень: 371

2018-12-18 13:03  
Виправте в описі: "гостого на язик", "намагаютсья врятувати"
подорожній 
Свій


З нами з: 20.06.15
Востаннє: 01.04.19
Повідомлень: 129

2018-12-18 17:17  
Звук - це добре, але дочекаюся кращої якості...
poohast 
Новенький


З нами з: 20.05.10
Востаннє: 23.05.19
Повідомлень: 1

2018-12-20 22:37  
Чудове кіно. Переглянули всією родиною ))
sinpavla 
Свій


З нами з: 15.06.12
Востаннє: 27.05.19
Повідомлень: 104

2018-12-21 07:29  
чудове свято.гарне кіно.красно дякую
t850 
Поважний учасник


З нами з: 03.10.12
Востаннє: 26.05.19
Повідомлень: 184

2018-12-21 09:56  
Додайте ігнор на трекері(на сайт toloka.to) чи що... знову ця космохрінь не хочу знову випадково вляпатись.
las33 
Новенький


З нами з: 05.06.13
Востаннє: 26.05.19
Повідомлень: 11

2018-12-22 10:43  
Гарний, файний фільм!!!!
BiOZ 
Новенький


З нами з: 22.04.18
Востаннє: 09.05.19
Повідомлень: 2

2018-12-23 12:04  
Дуже гарне різдвяне кіно, рекомендую!!! Дякую за озвучення і роздачу!)
wacok 
Новенький


З нами з: 03.12.16
Востаннє: 27.05.19
Повідомлень: 7

2018-12-23 22:39  
не раджу для завантаження. водяний знак Dnipro в кутку на пів екрану, неможливо дивитись. Я так розумію що це "фішка" всії релізів цієї студії.
EvGaS 
Відео Гуртом - субтитрування
Відео Гуртом - субтитрування


З нами з: 27.02.12
Востаннє: 30.04.19
Повідомлень: 5678

2018-12-24 03:54  
wacok
ось вам і реліз без вотермарки, і тема для обговорення:
https://toloka.to/t97468
https://toloka.to/t97486

wacok 
Новенький


З нами з: 03.12.16
Востаннє: 27.05.19
Повідомлень: 7

2018-12-25 00:38  
дякую
WRTRX 
Частий відвідувач


З нами з: 10.01.16
Востаннє: 27.05.19
Повідомлень: 40

2019-01-01 20:34  
Даже не сподобалось що рекламну начитку посеред фільму вставляють. Все розумію, людям якось треба заробляти, але відео вставки на початку ЦІЛКОМ достатньо.
igor911 
Модератор відео


З нами з: 18.01.08
Востаннє: 27.05.19
Повідомлень: 12548

2019-01-01 23:45  
WRTRX написано:
на початку цілком достатньо

очевидно не студія визначає кількість рекламних вставок, а спонсор озвучення (рекламодавець).

taramon 
Частий відвідувач


З нами з: 28.09.09
Востаннє: 27.05.19
Повідомлень: 41

2019-01-03 12:06  
класний дитячий фільм 8/10
Apple 
Свій


З нами з: 13.07.08
Востаннє: 26.05.19
Повідомлень: 68

2019-01-07 13:51  
wacok
ти дивишся фільм БЕЗКОШТОВНО!

От коли заберуть таку можливість - будеш молитись, щоб фільми з вотермарками і рекламою повернулись.

IgorN95 
Поважний учасник


З нами з: 22.05.11
Востаннє: 26.05.19
Повідомлень: 195

2019-01-09 00:24  
Дивився на Netflix, дуже сподобався, фільм просто фантастичний.
veresen55 
Новенький


З нами з: 19.12.09
Востаннє: 24.05.19
Повідомлень: 4

2019-01-12 17:13  
хочуть доказати???
hudda 
Свій


З нами з: 07.06.09
Востаннє: 26.05.19
Повідомлень: 75

2019-01-13 18:15  
подорожній
Цитата:
Звук - це добре, але дочекаюся кращої якості...

Бгг. Це так смішно читати в роздачі AVI-шного ріпу ))

Ваш часовий пояс: GMT + 2 Години

Нова тема   Відповісти