Інший світ: Колекція / Underworld: Collection (2003-2016) 1080p H.265 Ukr/Eng | Sub Eng

Нові коментарі

Нова тема   Відповісти
Автор Повідомлення
Anonymous 







2018-12-17 17:38  
Інший світ: Колекція / Underworld: Collection (2003-2016) 1080p H.265 Ukr/Eng | Sub Eng

Інший світ: Колекція / Underworld: Collection (2003-2016) 1080p H.265 Ukr/Eng | Sub Eng

1. 2. 3. 4. 5.

1. Інший світ (Режисерська версія) / Underworld (Director's Cut) (2003) 1080p H.265 Ukr/Eng | Sub Eng
Інший світ (Режисерська версія) / Underworld (Director's Cut) (2003) 1080p H.265 Ukr/Eng | Sub Eng

Інший світ: Колекція / Underworld: Collection (2003-2016) 1080p H.265 Ukr/Eng | Sub Eng


Жанр: бойовик, екшн, жахи, трилер, фентезі
Країна: США
Кінокомпанія: Lakeshore Entertainment
Режисер: Лен Уайзмен
Актори: Кейт Бекінсейл, Скот Спідмен, Майкл Шин, Шейн Броллі, Біл Найї, Ервин Ледер, Софі Майлс, Роббі Гі, Вентуорф Міллер, Кевін Грев"є, Зіта Горог, Деніс Дж. Козелу, Скот МакЕлрой, Тод Шнайдер, Сандор Болла, Хенк Амос, Жужа Барсі, Річард Цетрон, Майк Мукатіс, Сандор Борос, Янос Ола

Сюжет:
У світі багато століть йде війна між двома расами безсмертних: вампірами і перевертнями-"ліканів". І для тих, і для інших людство - усього лише стадо, яким вони харчуються. Навіть серед безсмертних мало таких, хто пам'ятає, з чого почалася ворожнеча між ними. Ще менше тих, хто знає, що і вампіри, і перевертні ведуть свій рід від однієї людини. І ті, хто знає про це, своє знання ретельно приховує. У секретних лабораторіях обидва роду створили для війни ефективне надсучасне зброю.

Тривалість: 02:13:37
Якість:
Відео:
кодек: H.265 (HEVC)
розмір кадру: 1920 x 808
бітрейт: 5 541 кб/с
частота кадрів: 23.976 fps
біт піксель: 0.149 BPP
бітова глибина: 10 біт
Увага! Перед завантаженням переконайтесь, що ваш пристрій відтворення (та/або ПЗ) підтримує H.265 (HEVC)

Аудіо # 1:
мова: українська
переклад: багатоголосий закадровий
кодек: 5.1
бітрейт: 755 кб/с

Аудіо # 2:
мова: англійська
переклад: оригінал
кодек: AC-3 5.1
бітрейт: 384 кб/с

Субтитри # 1:
мова: українська (Forced, на місця без перекладу),
тип: програмні (м'які)
формат: *.srt

Субтитри # 2:
мова: англійська (Full),
тип: програмні (м'які)
формат: *.srt


Info
Код:
General
Unique ID                                : 286179613790476027244566041219599452420 (0xD74C30530C82D8AD83EB462C10A44904)
Complete name                            : G:\Video\Films\Collection\Underworld. Antology (2003-2016) 1080p H.265\1. Underworld (Director's Cut) (2003) 1080p H.265 [UKR_ENG].
Format                                   :
Format version                           : Version 4 / Version 2
File size                                : 6.24 GiB
Duration                                 : 2 h 13 min
Overall bit rate                         : 6 682 kb/s
Movie name                               : Underworld [Director's Cut] (2003)
Encoded date                             : UTC 2018-12-17 11:37:32
Writing application                      : v20.0.0 ('I Am The Sun') 32-bit
Writing library                          : libebml v1.3.5 + v1.4.8
Cover                                    : Yes
Attachments                              : Cover.jpg

Video
ID                                       : 1
Format                                   : HEVC
Format/Info                              : High Efficiency Video Coding
Format profile                           : Main [email protected]@High
Codec ID                                 : V_MPEGH/ISO/HEVC
Duration                                 : 2 h 13 min
Bit rate                                 : 5 541 kb/s
Width                                    : 1 920 pixels
Height                                   : 808 pixels
Display aspect ratio                     : 2.40:1
Frame rate mode                          : Constant
Frame rate                               : 23.976 (24000/1001) FPS
Color space                              : YUV
Chroma subsampling                       : 4:2:0
Bit depth                                : 10 bits
Bits/(Pixel*Frame)                       : 0.149
Stream size                              : 5.17 GiB (83%)
Title                                    : Underworld [Director's Cut] (2003)
Writing library                          : x265 2.7+340-aa9102400f24:[Windows][GCC 8.0.1][64 bit] 10bit
Encoding settings                        : cpuid=1049583 / frame-threads=4 / numa-pools=4 / wpp / no-pmode / no-pme / no-psnr / no-ssim / log-level=2 / input-csp=1 / input-res=1920x808 / interlace=0 / total-frames=192216 / level-idc=41 / high-tier=1 / uhd-bd=0 / ref=5 / no-allow-non-conformance / no-repeat-headers / annexb / no-aud / no-hrd / info / hash=0 / no-temporal-layers / open-gop / min-keyint=23 / keyint=240 / gop-lookahead=0 / bframes=8 / b-adapt=2 / b-pyramid / bframe-bias=0 / rc-lookahead=40 / lookahead-slices=4 / scenecut=40 / radl=0 / no-intra-refresh / ctu=64 / min-cu-size=8 / rect / amp / max-tu-size=32 / tu-inter-depth=3 / tu-intra-depth=3 / limit-tu=4 / rdoq-level=1 / dynamic-rd=0.00 / no-ssim-rd / signhide / no-tskip / nr-intra=0 / nr-inter=0 / no-constrained-intra / no-strong-intra-smoothing / max-merge=3 / limit-refs=2 / limit-modes / me=3 / subme=7 / merange=57 / temporal-mvp / weightp / weightb / no-analyze-src-pics / deblock=-3:-3 / no-sao / no-sao-non-deblock / rd=4 / no-early-skip / rskip / no-fast-intra / no-tskip-fast / no-cu-lossless / no-b-intra / no-splitrd-skip / rdpenalty=0 / psy-rd=2.00 / psy-rdoq=1.00 / no-rd-refine / no-lossless / cbqpoffs=0 / crqpoffs=0 / rc=crf / crf=18.0 / qcomp=0.60 / qpstep=4 / stats-write=0 / stats-read=0 / vbv-maxrate=50000 / vbv-bufsize=50000 / vbv-init=0.9 / crf-max=0.0 / crf-min=0.0 / ipratio=1.40 / pbratio=1.30 / aq-mode=1 / aq-strength=1.00 / cutree / zone-count=0 / no-strict-cbr / qg-size=32 / no-rc-grain / qpmax=69 / qpmin=0 / no-const-vbv / sar=1 / overscan=0 / videoformat=5 / range=0 / colorprim=1 / transfer=1 / colormatrix=1 / chromaloc=0 / display-window=0 / max-cll=0,0 / min-luma=0 / max-luma=1023 / log2-max-poc-lsb=8 / vui-timing-info / vui-hrd-info / slices=1 / no-opt-qp-pps / no-opt-ref-list-length-pps / no-multi-pass-opt-rps / scenecut-bias=0.05 / no-opt-cu-delta-qp / no-aq-motion / no-hdr / no-hdr-opt / no-dhdr10-opt / no-idr-recovery-sei / analysis-reuse-level=5 / scale-factor=0 / refine-intra=0 / refine-inter=0 / refine-mv=0 / no-limit-sao / ctu-info=0 / no-lowpass-dct / refine-mv-type=0 / copy-pic=1 / max-ausize-factor=1.0 / no-dynamic-refine / no-single-sei
Language                                 : English
Default                                  : Yes
Forced                                   : No
Color range                              : Limited
Color primaries                          : BT.709
Transfer characteristics                 : BT.709
Matrix coefficients                      : BT.709

Audio #1
ID                                       : 2
Format                                   :
Format/Info                              : Digital Theater Systems
Codec ID                                 : A_DTS
Duration                                 : 2 h 13 min
Bit rate mode                            : Constant
Bit rate                                 : 755 kb/s
Channel(s)                               : 6 channels
Channel positions                        : Front: L C R, Side: L R, LFE
Sampling rate                            : 48.0 kHz
Frame rate                               : 93.750 FPS (512 SPF)
Bit depth                                : 24 bits
Compression mode                         : Lossy
Stream size                              : 721 MiB (11%)
Title                                    : БЗ - ICTV
Language                                 : Ukrainian
Default                                  : Yes
Forced                                   : No

Audio #2
ID                                       : 3
Format                                   : AC-3
Format/Info                              : Audio Coding 3
Codec ID                                 : A_AC3
Duration                                 : 2 h 13 min
Bit rate mode                            : Constant
Bit rate                                 : 384 kb/s
Channel(s)                               : 6 channels
Channel positions                        : Front: L C R, Side: L R, LFE
Sampling rate                            : 48.0 kHz
Frame rate                               : 31.250 FPS (1536 SPF)
Bit depth                                : 16 bits
Compression mode                         : Lossy
Stream size                              : 367 MiB (6%)
Title                                    : Original
Language                                 : English
Service kind                             : Complete Main
Default                                  : No
Forced                                   : No

Text #1
ID                                       : 4
Format                                   : UTF-8
Codec ID                                 : S_TEXT/UTF8
Codec ID/Info                            : UTF-8 Plain Text
Duration                                 : 58 min 36 s
Bit rate                                 : 7 b/s
Count of elements                        : 58
Stream size                              : 3.25 KiB (0%)
Title                                    : Forced
Language                                 : Ukrainian
Default                                  : Yes
Forced                                   : Yes

Text #2
ID                                       : 5
Format                                   : UTF-8
Codec ID                                 : S_TEXT/UTF8
Codec ID/Info                            : UTF-8 Plain Text
Duration                                 : 2 h 4 min
Bit rate                                 : 28 b/s
Count of elements                        : 710
Stream size                              : 26.1 KiB (0%)
Title                                    : Full
Language                                 : English
Default                                  : No
Forced                                   : No

Menu
00:00:00.000                             : en:
00:02:45.248                             : en:
00:14:28.284                             : en:
00:25:22.479                             : en:
00:30:43.842                             : en:
00:37:14.732                             : en:
00:44:42.930                             : en:
00:56:17.957                             : en:
01:00:28.875                             : en:
01:09:08.519                             : en:
01:16:27.124                             : en:
01:25:01.262                             : en:
01:34:27.453                             : en:
01:42:50.873                             : en:
01:49:50.333                             : en:
01:59:07.723                             : en:
Світлини



2. Інший світ 2: Еволюція / Underworld 2: Evolution (2006) 1080p H.265 Ukr/Eng | Sub Eng
Інший світ 2: Еволюція / Underworld 2: Evolution (2006) 1080p H.265 Ukr/Eng | Sub Eng

Інший світ: Колекція / Underworld: Collection (2003-2016) 1080p H.265 Ukr/Eng | Sub Eng


Жанр: бойовик, екшн, жахи, трилер, фентезі
Країна: США
Кінокомпанія: Lakeshore Entertainment
Режисер: Лен Уайзмен
Актори: Кейт Бекінсейл, Скот Спідмен, Майкл Шин, Тоні Каррен, Шейн Броллі, Дерек Якобі, Біл Найї, Ервин Ледер, Стівен Макінтош, Софі Майлс, Роббі Гі, Вентуорф Міллер, Кевін Грев"є, Зіта Горог, Деніс Дж. Козелу, Браян Стіл, Скот МакЕлрой, Тод Шнайдер, Сандор Болла, Хенк Амос, Жужа Барсі, Річард Цетрон, Майк Мукатіс, Сандор Борос, Янос Ола, Джон Ман, Майкл Шин, Софі Майлс, Річард Цетрон, Майк Мукатіс, Крістін Даніель, Кайя Джестал, Атіла Ловаджі, Олександр Грант, Моніка Гамбург, Лілі Мо Шин

Сюжет:
У зловісному нічному світі, прихованому отвзора простих смертних, не вщухає нещадна боротьба між двома кланами володарів мороку - вампірами і перевертнями. Настала пора дізнатися про витоки вікової ворожнечі, що стала для вампіра-войовниці Селін і Майкла, напівперевертня-напівлюдини, прокляттям і сенсом існування.
Борючись із могутніми ворогами з обох кланів, древніми магістрами смерті, вони пізнають криваву інтригу і заборонену любов, щоб в сутінку ночі розкрити таємницю свого походження і своєї спадщини. Їх чекає велика битва, яка покінчить з вічним протистоянням - остання сутичка заради закінчення всіх воєн, в якій безсмертні повинні понести кару і розплатитися за свої злодіяння ...


Тривалість: 01:46:22
Якість:
Відео:
кодек: H.265 (HEVC)
розмір кадру: 1920 x 1080
бітрейт: 7 587 кб/с
частота кадрів: 23.976 fps
біт піксель: 0.153 BPP
бітова глибина: 10 біт
Увага! Перед завантаженням переконайтесь, що ваш пристрій відтворення (та/або ПЗ) підтримує H.265 (HEVC)

Аудіо # 1:
мова: українська
переклад: багатоголосий закадровий
кодек: 5.1
бітрейт: 755 кб/с

Аудіо # 2:
мова: англійська
переклад: оригінал
кодек: AC-3 5.1
бітрейт: 448 кб/с

Субтитри # 1:
мова: англійська (Full),
тип: програмні (м'які)
формат: *.srt


Info
Код:
General
Unique ID                                : 1014454231758645201704158601582052582 (0xC3607489812092C10AF8B6557984E6)
Complete name                            : G:\Video\Films\Collection\Underworld. Antology (2003-2016) 1080p H.265\2. Underworld 2. Evolution (2006) 1080p H.265 [UKR_ENG].
Format                                   :
Format version                           : Version 4 / Version 2
File size                                : 6.53 GiB
Duration                                 : 1 h 46 min
Overall bit rate                         : 8 792 kb/s
Movie name                               : Underworld. Evolution (2006)
Encoded date                             : UTC 2018-12-17 11:45:53
Writing application                      : v20.0.0 ('I Am The Sun') 32-bit
Writing library                          : libebml v1.3.5 + v1.4.8
Cover                                    : Yes
Attachments                              : Cover.jpg

Video
ID                                       : 1
Format                                   : HEVC
Format/Info                              : High Efficiency Video Coding
Format profile                           : Main [email protected]@High
Codec ID                                 : V_MPEGH/ISO/HEVC
Duration                                 : 1 h 46 min
Bit rate                                 : 7 587 kb/s
Width                                    : 1 920 pixels
Height                                   : 1 080 pixels
Display aspect ratio                     : 16:9
Frame rate mode                          : Constant
Frame rate                               : 23.976 (24000/1001) FPS
Color space                              : YUV
Chroma subsampling                       : 4:2:0
Bit depth                                : 10 bits
Bits/(Pixel*Frame)                       : 0.153
Stream size                              : 5.64 GiB (86%)
Title                                    : Underworld. Evolution (2006)
Writing library                          : x265 2.8+49-5d34bbf671f7:[Windows][GCC 8.1.1][64 bit] 10bit
Encoding settings                        : cpuid=1049583 / frame-threads=4 / numa-pools=4 / wpp / no-pmode / no-pme / no-psnr / no-ssim / log-level=2 / input-csp=1 / input-res=1920x1080 / interlace=0 / total-frames=153024 / level-idc=41 / high-tier=1 / uhd-bd=0 / ref=5 / no-allow-non-conformance / no-repeat-headers / annexb / no-aud / no-hrd / info / hash=0 / no-temporal-layers / open-gop / min-keyint=23 / keyint=240 / gop-lookahead=0 / bframes=8 / b-adapt=2 / b-pyramid / bframe-bias=0 / rc-lookahead=40 / lookahead-slices=4 / scenecut=40 / radl=0 / no-intra-refresh / ctu=64 / min-cu-size=8 / rect / amp / max-tu-size=32 / tu-inter-depth=3 / tu-intra-depth=3 / limit-tu=4 / rdoq-level=1 / dynamic-rd=0.00 / no-ssim-rd / signhide / no-tskip / nr-intra=0 / nr-inter=0 / no-constrained-intra / no-strong-intra-smoothing / max-merge=3 / limit-refs=2 / limit-modes / me=3 / subme=7 / merange=57 / temporal-mvp / weightp / weightb / no-analyze-src-pics / deblock=-3:-3 / no-sao / no-sao-non-deblock / rd=4 / no-early-skip / rskip / no-fast-intra / no-tskip-fast / no-cu-lossless / no-b-intra / no-splitrd-skip / rdpenalty=0 / psy-rd=2.00 / psy-rdoq=1.00 / no-rd-refine / no-lossless / cbqpoffs=0 / crqpoffs=0 / rc=crf / crf=18.0 / qcomp=0.60 / qpstep=4 / stats-write=0 / stats-read=0 / vbv-maxrate=50000 / vbv-bufsize=50000 / vbv-init=0.9 / crf-max=0.0 / crf-min=0.0 / ipratio=1.40 / pbratio=1.30 / aq-mode=1 / aq-strength=1.00 / cutree / zone-count=0 / no-strict-cbr / qg-size=32 / no-rc-grain / qpmax=69 / qpmin=0 / no-const-vbv / sar=1 / overscan=0 / videoformat=5 / range=0 / colorprim=1 / transfer=1 / colormatrix=1 / chromaloc=0 / display-window=0 / max-cll=0,0 / min-luma=0 / max-luma=1023 / log2-max-poc-lsb=8 / vui-timing-info / vui-hrd-info / slices=1 / no-opt-qp-pps / no-opt-ref-list-length-pps / no-multi-pass-opt-rps / scenecut-bias=0.05 / no-opt-cu-delta-qp / no-aq-motion / no-hdr / no-hdr-opt / no-dhdr10-opt / no-idr-recovery-sei / analysis-reuse-level=5 / scale-factor=0 / refine-intra=0 / refine-inter=0 / refine-mv=0 / no-limit-sao / ctu-info=0 / no-lowpass-dct / refine-mv-type=0 / copy-pic=1 / max-ausize-factor=1.0 / no-dynamic-refine / no-single-sei
Language                                 : English
Default                                  : Yes
Forced                                   : No
Color range                              : Limited
Color primaries                          : BT.709
Transfer characteristics                 : BT.709
Matrix coefficients                      : BT.709

Audio #1
ID                                       : 2
Format                                   :
Format/Info                              : Digital Theater Systems
Codec ID                                 : A_DTS
Duration                                 : 1 h 46 min
Bit rate mode                            : Constant
Bit rate                                 : 755 kb/s
Channel(s)                               : 6 channels
Channel positions                        : Front: L C R, Side: L R, LFE
Sampling rate                            : 48.0 kHz
Frame rate                               : 93.750 FPS (512 SPF)
Bit depth                                : 24 bits
Compression mode                         : Lossy
Stream size                              : 574 MiB (9%)
Title                                    : БЗ - Kanal Ukraina
Language                                 : Ukrainian
Default                                  : Yes
Forced                                   : No

Audio #2
ID                                       : 3
Format                                   : AC-3
Format/Info                              : Audio Coding 3
Codec ID                                 : A_AC3
Duration                                 : 1 h 46 min
Bit rate mode                            : Constant
Bit rate                                 : 448 kb/s
Channel(s)                               : 6 channels
Channel positions                        : Front: L C R, Side: L R, LFE
Sampling rate                            : 48.0 kHz
Frame rate                               : 31.250 FPS (1536 SPF)
Bit depth                                : 16 bits
Compression mode                         : Lossy
Stream size                              : 341 MiB (5%)
Title                                    : Original
Language                                 : English
Service kind                             : Complete Main
Default                                  : No
Forced                                   : No

Text
ID                                       : 4
Format                                   : UTF-8
Codec ID                                 : S_TEXT/UTF8
Codec ID/Info                            : UTF-8 Plain Text
Duration                                 : 1 h 36 min
Bit rate                                 : 20 b/s
Count of elements                        : 421
Stream size                              : 14.5 KiB (0%)
Title                                    : Full
Language                                 : English
Default                                  : No
Forced                                   : No

Menu
00:00:00.000                             : :Start
00:09:46.707                             : :The Last Hope
00:12:21.321                             : :Respect the Elders
00:15:38.936                             : :No Going Back
00:17:18.326                             : :Carving a New Course
00:23:12.387                             : :Can't Bear the Hunger
00:29:31.601                             : :Road Rage Reunion
00:33:48.441                             : :A Burning Need
00:38:58.208                             : :Leaving No Trace
00:41:18.681                             : :Relic of Memory
00:43:32.106                             : :The Exile's Snare
00:47:21.335                             : :Time for Answers
00:49:12.155                             : :Truth and Legend
00:56:44.148                             : :Impailing Interrogation
01:00:00.510                             : :Father of the War
01:03:09.114                             : :Bleeding the Map
01:05:49.150                             : :Pain of Helplessness
01:07:14.902                             : :Divine Aspiration
01:10:32.265                             : :The Future Begins
01:13:43.375                             : :The Past Fades Away
01:15:58.216                             : :A Forgotton Chamber
01:17:17.255                             : :A Submerged Entry
01:20:18.185                             : :Brothers Reunited
01:21:26.502                             : :"We're Too Late."
01:25:30.081                             : :Explosive Encounter
01:28:43.480                             : :Outnumbered
01:32:11.230                             : :A Monstrous Duel
01:35:54.121                             : :Light of New Hope
Світлини



3. Інший світ 3: Повстання Ліканів / Underworld 3: Rise of the Lycans (2009) 1080p H.265 Ukr/Eng | Sub Eng
Інший світ 3: Повстання Ліканів / Underworld 3: Rise of the Lycans (2009) 1080p H.265 Ukr/Eng | Sub Eng

Інший світ: Колекція / Underworld: Collection (2003-2016) 1080p H.265 Ukr/Eng | Sub Eng


Жанр: фентезі, жахи, бойовик, трилер
Країна: США
Кінокомпанія: Lakeshore Entertainment Screen Gems Inc. UW3 Film Productions
Режисер: Патрік Татопулос (Patrick Tatopoulos)
Актори: Майкл Шин, Білл Найи, Рона Мітре, Стівен Макінтош, Кевін Гревьє, Девід Эштон, Джеральдін Брофі

Сюжет:
Історія кохання та ненависті, що просліджує походження вікової кровної ворожнечі, між аристократичними вампірами, відомими як Торговці смертю і їх рабами. Молодий лікан на ім'я Люциан — раб і водночас природжений лідер, який об'єднує перевертнів, щоб виступити проти Віктора, жорстокого короля вампірів, який поневолив їх. Дочка Віктора-Соня йде супроти рідної крові,пристає на бік Люциана, і допомагає йому в його боротьбі проти смертоносної армії торговців смертю.Однак ціна кохання вампіра і перевертня - смерть... Ця частина є пріквелом до перших двох, і знята в нарочито похмурих і темних тонах

Тривалість: 01:32:28
Якість:
Відео:
кодек: H.265 (HEVC)
розмір кадру: 1920 x 800
бітрейт: 7 629 кб/с
частота кадрів: 23.976 fps
біт піксель: 0.207 BPP
бітова глибина: 10 біт
Увага! Перед завантаженням переконайтесь, що ваш пристрій відтворення (та/або ПЗ) підтримує H.265 (HEVC)

Аудіо # 1:
мова: українська
переклад: професійний дубльований
кодек: AC-3 5.1
бітрейт: 640 кб/с

Аудіо # 2:
мова: англійська
переклад: оригінал
кодек: AC-3 5.1
бітрейт: 640 кб/с

Субтитри # 1:
мова: англійська (Full),
тип: програмні (м'які)
формат: *.srt


Info
Код:
General
Unique ID                                : 216689221013417045513415402253472360632 (0xA304D370A4FCB53E8E1D68BEE7A1E8B8)
Complete name                            : G:\Video\Films\Collection\Underworld. Antology (2003-2016) 1080p H.265\3. Underworld 3. Rise of the Lycans (2009) 1080p H.265 [UKR_ENG].
Format                                   :
Format version                           : Version 4 / Version 2
File size                                : 5.76 GiB
Duration                                 : 1 h 32 min
Overall bit rate                         : 8 911 kb/s
Movie name                               : Underworld 3: Rise of the Lycans (2009)
Encoded date                             : UTC 2018-12-17 15:21:18
Writing application                      : v20.0.0 ('I Am The Sun') 32-bit
Writing library                          : libebml v1.3.5 + v1.4.8
Cover                                    : Yes
Attachments                              : Cover.jpg

Video
ID                                       : 1
Format                                   : HEVC
Format/Info                              : High Efficiency Video Coding
Format profile                           : Main [email protected]@High
Codec ID                                 : V_MPEGH/ISO/HEVC
Duration                                 : 1 h 32 min
Bit rate                                 : 7 629 kb/s
Width                                    : 1 920 pixels
Height                                   : 800 pixels
Display aspect ratio                     : 2.40:1
Frame rate mode                          : Constant
Frame rate                               : 23.976 (24000/1001) FPS
Color space                              : YUV
Chroma subsampling                       : 4:2:0
Bit depth                                : 10 bits
Bits/(Pixel*Frame)                       : 0.207
Stream size                              : 4.93 GiB (86%)
Title                                    : Underworld 3: Rise of the Lycans (2009)
Writing library                          : x265 2.7+340-aa9102400f24:[Windows][GCC 8.0.1][64 bit] 10bit
Encoding settings                        : cpuid=1049583 / frame-threads=4 / numa-pools=4 / wpp / no-pmode / no-pme / no-psnr / no-ssim / log-level=2 / input-csp=1 / input-res=1920x800 / interlace=0 / total-frames=133033 / level-idc=41 / high-tier=1 / uhd-bd=0 / ref=5 / no-allow-non-conformance / no-repeat-headers / annexb / no-aud / no-hrd / info / hash=0 / no-temporal-layers / open-gop / min-keyint=23 / keyint=240 / gop-lookahead=0 / bframes=10 / b-adapt=2 / b-pyramid / bframe-bias=0 / rc-lookahead=40 / lookahead-slices=4 / scenecut=40 / radl=0 / no-intra-refresh / ctu=64 / min-cu-size=8 / rect / amp / max-tu-size=32 / tu-inter-depth=3 / tu-intra-depth=3 / limit-tu=4 / rdoq-level=1 / dynamic-rd=0.00 / no-ssim-rd / signhide / no-tskip / nr-intra=0 / nr-inter=0 / no-constrained-intra / no-strong-intra-smoothing / max-merge=3 / limit-refs=2 / limit-modes / me=3 / subme=7 / merange=57 / temporal-mvp / weightp / weightb / no-analyze-src-pics / deblock=-3:-3 / no-sao / no-sao-non-deblock / rd=4 / no-early-skip / rskip / no-fast-intra / no-tskip-fast / no-cu-lossless / no-b-intra / no-splitrd-skip / rdpenalty=0 / psy-rd=2.00 / psy-rdoq=1.00 / no-rd-refine / no-lossless / cbqpoffs=0 / crqpoffs=0 / rc=crf / crf=18.0 / qcomp=0.60 / qpstep=4 / stats-write=0 / stats-read=0 / vbv-maxrate=50000 / vbv-bufsize=50000 / vbv-init=0.9 / crf-max=0.0 / crf-min=0.0 / ipratio=1.40 / pbratio=1.30 / aq-mode=1 / aq-strength=1.00 / cutree / zone-count=0 / no-strict-cbr / qg-size=32 / no-rc-grain / qpmax=69 / qpmin=0 / no-const-vbv / sar=1 / overscan=0 / videoformat=5 / range=0 / colorprim=1 / transfer=1 / colormatrix=1 / chromaloc=0 / display-window=0 / max-cll=0,0 / min-luma=0 / max-luma=1023 / log2-max-poc-lsb=8 / vui-timing-info / vui-hrd-info / slices=1 / no-opt-qp-pps / no-opt-ref-list-length-pps / no-multi-pass-opt-rps / scenecut-bias=0.05 / no-opt-cu-delta-qp / no-aq-motion / no-hdr / no-hdr-opt / no-dhdr10-opt / no-idr-recovery-sei / analysis-reuse-level=5 / scale-factor=0 / refine-intra=0 / refine-inter=0 / refine-mv=0 / no-limit-sao / ctu-info=0 / no-lowpass-dct / refine-mv-type=0 / copy-pic=1 / max-ausize-factor=1.0 / no-dynamic-refine / no-single-sei
Language                                 : English
Default                                  : Yes
Forced                                   : No
Color range                              : Limited
Color primaries                          : BT.709
Transfer characteristics                 : BT.709
Matrix coefficients                      : BT.709

Audio #1
ID                                       : 2
Format                                   : AC-3
Format/Info                              : Audio Coding 3
Codec ID                                 : A_AC3
Duration                                 : 1 h 32 min
Bit rate mode                            : Constant
Bit rate                                 : 640 kb/s
Channel(s)                               : 6 channels
Channel positions                        : Front: L C R, Side: L R, LFE
Sampling rate                            : 48.0 kHz
Frame rate                               : 31.250 FPS (1536 SPF)
Bit depth                                : 16 bits
Compression mode                         : Lossy
Stream size                              : 423 MiB (7%)
Title                                    : ПД - Blu-Ray
Language                                 : Ukrainian
Service kind                             : Complete Main
Default                                  : Yes
Forced                                   : No

Audio #2
ID                                       : 3
Format                                   : AC-3
Format/Info                              : Audio Coding 3
Codec ID                                 : A_AC3
Duration                                 : 1 h 32 min
Bit rate mode                            : Constant
Bit rate                                 : 640 kb/s
Channel(s)                               : 6 channels
Channel positions                        : Front: L C R, Side: L R, LFE
Sampling rate                            : 48.0 kHz
Frame rate                               : 31.250 FPS (1536 SPF)
Bit depth                                : 16 bits
Compression mode                         : Lossy
Stream size                              : 423 MiB (7%)
Title                                    : Original
Language                                 : English
Service kind                             : Complete Main
Default                                  : No
Forced                                   : No

Text
ID                                       : 4
Format                                   : UTF-8
Codec ID                                 : S_TEXT/UTF8
Codec ID/Info                            : UTF-8 Plain Text
Duration                                 : 1 h 22 min
Bit rate                                 : 33 b/s
Count of elements                        : 654
Stream size                              : 20.3 KiB (0%)
Title                                    : Full
Language                                 : English
Default                                  : No
Forced                                   : No

Menu
00:00:00.000                             : en:Chapter 1
00:00:50.550                             : en:Chapter 2
00:06:13.122                             : en:Chapter 3
00:06:19.879                             : en:Chapter 4
00:11:42.785                             : en:Chapter 5
00:16:03.462                             : en:Chapter 6
00:16:44.628                             : en:Chapter 7
00:19:38.010                             : en:Chapter 8
00:22:37.564                             : en:Chapter 9
00:24:33.054                             : en:Chapter 10
00:27:36.446                             : en:Chapter 11
00:28:44.889                             : en:Chapter 12
00:30:28.493                             : en:Chapter 13
00:31:28.678                             : en:Chapter 14
00:35:42.265                             : en:Chapter 15
00:36:33.149                             : en:Chapter 16
00:39:04.925                             : en:Chapter 17
00:40:17.415                             : en:Chapter 18
00:41:41.498                             : en:Chapter 19
00:46:25.824                             : en:Chapter 20
00:46:28.869                             : en:Chapter 21
00:50:44.166                             : en:Chapter 22
00:50:54.593                             : en:Chapter 23
00:52:28.979                             : en:Chapter 24
00:55:08.221                             : en:Chapter 25
00:56:09.491                             : en:Chapter 26
01:00:39.302                             : en:Chapter 27
01:00:46.184                             : en:Chapter 28
01:04:21.065                             : en:Chapter 29
01:07:13.279                             : en:Chapter 30
01:11:15.437                             : en:Chapter 31
01:13:29.321                             : en:Chapter 32
01:16:18.907                             : en:Chapter 33
01:16:38.844                             : en:Chapter 34
01:18:03.887                             : en:Chapter 35
01:22:33.156                             : en:Chapter 36
Світлини



4. Інший світ 4: Пробудження / Underworld: Awakening (2012) 1080p H.265 Ukr/Eng | Sub Eng
Інший світ 4: Пробудження / Underworld: Awakening (2012) 1080p H.265 Ukr/Eng | Sub Eng

Інший світ: Колекція / Underworld: Collection (2003-2016) 1080p H.265 Ukr/Eng | Sub Eng


Жанр: жахи, фентезі, бойовик
Країна: США
Кінокомпанія: Lakeshore Entertainment
Режисер: Монс Морлінд, Бьерн Стейн
Актори: Кейт Бекінсейл, Стівен Рі, Майкл Або, Тео Джеймс, Індія Айлі, Чарльз Денс, Крістен Холден-Рід, Сандрін Холт, Річард Цетрон, Сенні Ван Хетерен

Сюжет:
Через 12 років в стані, близькому до коматозного, Селін дізнається про існування рідної дочки Єви - гібрида вампіра і лікана. І Селін необхідно перешкодити Біоком створити суперліканів, які вб'ють їх усіх.

Тривалість: 01:28:34
Якість:
Відео:
кодек: H.265 (HEVC)
розмір кадру: 1920 x 800
бітрейт: 5 125 кб/с
частота кадрів: 23.976 fps
біт піксель: 0.139 BPP
бітова глибина: 10 біт
Увага! Перед завантаженням переконайтесь, що ваш пристрій відтворення (та/або ПЗ) підтримує H.265 (HEVC)

Аудіо # 1:
мова: українська
переклад: професійний дубльований
кодек: AC-3 5.1
бітрейт: 640 кб/с

Аудіо # 2:
мова: англійська
переклад: оригінал
кодек: AC-3 5.1
бітрейт: 640 кб/с

Субтитри # 1:
мова: англійська (Full),
тип: програмні (м'які)
формат: *.srt


Info
Код:
General
Unique ID                                : 229535787930117539166970187159040051299 (0xACAEFC17279C7B7D2DF59C651EF24863)
Complete name                            : G:\Video\Films\Collection\Underworld. Antology (2003-2016) 1080p H.265\4. Underworld 4. Awakening (2012) 1080p H.265 [UKR_ENG].
Format                                   :
Format version                           : Version 4 / Version 2
File size                                : 3.96 GiB
Duration                                 : 1 h 28 min
Overall bit rate                         : 6 408 kb/s
Movie name                               : Underworld 4: Awakening (2012)
Encoded date                             : UTC 2018-12-17 15:12:02
Writing application                      : v20.0.0 ('I Am The Sun') 32-bit
Writing library                          : libebml v1.3.5 + v1.4.8
Cover                                    : Yes
Attachments                              : Cover.jpg

Video
ID                                       : 1
Format                                   : HEVC
Format/Info                              : High Efficiency Video Coding
Format profile                           : Main [email protected]@High
Codec ID                                 : V_MPEGH/ISO/HEVC
Duration                                 : 1 h 28 min
Bit rate                                 : 5 125 kb/s
Width                                    : 1 920 pixels
Height                                   : 800 pixels
Display aspect ratio                     : 2.40:1
Frame rate mode                          : Constant
Frame rate                               : 23.976 (24000/1001) FPS
Color space                              : YUV
Chroma subsampling                       : 4:2:0
Bit depth                                : 10 bits
Bits/(Pixel*Frame)                       : 0.139
Stream size                              : 3.17 GiB (80%)
Title                                    : Underworld 4: Awakening (2012)
Writing library                          : x265 2.7+340-aa9102400f24:[Windows][GCC 8.0.1][64 bit] 10bit
Encoding settings                        : cpuid=1049583 / frame-threads=4 / numa-pools=4 / wpp / no-pmode / no-pme / no-psnr / no-ssim / log-level=2 / input-csp=1 / input-res=1920x800 / interlace=0 / total-frames=127425 / level-idc=41 / high-tier=1 / uhd-bd=0 / ref=5 / no-allow-non-conformance / no-repeat-headers / annexb / no-aud / no-hrd / info / hash=0 / no-temporal-layers / open-gop / min-keyint=23 / keyint=240 / gop-lookahead=0 / bframes=8 / b-adapt=2 / b-pyramid / bframe-bias=0 / rc-lookahead=40 / lookahead-slices=4 / scenecut=40 / radl=0 / no-intra-refresh / ctu=64 / min-cu-size=8 / rect / amp / max-tu-size=32 / tu-inter-depth=3 / tu-intra-depth=3 / limit-tu=4 / rdoq-level=1 / dynamic-rd=0.00 / no-ssim-rd / signhide / no-tskip / nr-intra=0 / nr-inter=0 / no-constrained-intra / no-strong-intra-smoothing / max-merge=3 / limit-refs=2 / limit-modes / me=3 / subme=7 / merange=57 / temporal-mvp / weightp / weightb / no-analyze-src-pics / deblock=-3:-3 / no-sao / no-sao-non-deblock / rd=4 / no-early-skip / rskip / no-fast-intra / no-tskip-fast / no-cu-lossless / no-b-intra / no-splitrd-skip / rdpenalty=0 / psy-rd=2.00 / psy-rdoq=1.00 / no-rd-refine / no-lossless / cbqpoffs=0 / crqpoffs=0 / rc=crf / crf=18.0 / qcomp=0.60 / qpstep=4 / stats-write=0 / stats-read=0 / vbv-maxrate=50000 / vbv-bufsize=50000 / vbv-init=0.9 / crf-max=0.0 / crf-min=0.0 / ipratio=1.40 / pbratio=1.30 / aq-mode=1 / aq-strength=1.00 / cutree / zone-count=0 / no-strict-cbr / qg-size=32 / no-rc-grain / qpmax=69 / qpmin=0 / no-const-vbv / sar=1 / overscan=0 / videoformat=5 / range=0 / colorprim=1 / transfer=1 / colormatrix=1 / chromaloc=0 / display-window=0 / max-cll=0,0 / min-luma=0 / max-luma=1023 / log2-max-poc-lsb=8 / vui-timing-info / vui-hrd-info / slices=1 / no-opt-qp-pps / no-opt-ref-list-length-pps / no-multi-pass-opt-rps / scenecut-bias=0.05 / no-opt-cu-delta-qp / no-aq-motion / no-hdr / no-hdr-opt / no-dhdr10-opt / no-idr-recovery-sei / analysis-reuse-level=5 / scale-factor=0 / refine-intra=0 / refine-inter=0 / refine-mv=0 / no-limit-sao / ctu-info=0 / no-lowpass-dct / refine-mv-type=0 / copy-pic=1 / max-ausize-factor=1.0 / no-dynamic-refine / no-single-sei
Language                                 : English
Default                                  : Yes
Forced                                   : No
Color range                              : Limited
Color primaries                          : BT.709
Transfer characteristics                 : BT.709
Matrix coefficients                      : BT.709

Audio #1
ID                                       : 2
Format                                   : AC-3
Format/Info                              : Audio Coding 3
Codec ID                                 : A_AC3
Duration                                 : 1 h 28 min
Bit rate mode                            : Constant
Bit rate                                 : 640 kb/s
Channel(s)                               : 6 channels
Channel positions                        : Front: L C R, Side: L R, LFE
Sampling rate                            : 48.0 kHz
Frame rate                               : 31.250 FPS (1536 SPF)
Bit depth                                : 16 bits
Compression mode                         : Lossy
Stream size                              : 405 MiB (10%)
Title                                    : ПД - Blu-Ray
Language                                 : Ukrainian
Service kind                             : Complete Main
Default                                  : Yes
Forced                                   : No

Audio #2
ID                                       : 3
Format                                   : AC-3
Format/Info                              : Audio Coding 3
Codec ID                                 : A_AC3
Duration                                 : 1 h 28 min
Bit rate mode                            : Constant
Bit rate                                 : 640 kb/s
Channel(s)                               : 6 channels
Channel positions                        : Front: L C R, Side: L R, LFE
Sampling rate                            : 48.0 kHz
Frame rate                               : 31.250 FPS (1536 SPF)
Bit depth                                : 16 bits
Compression mode                         : Lossy
Stream size                              : 405 MiB (10%)
Title                                    : Original
Language                                 : English
Service kind                             : Complete Main
Default                                  : No
Forced                                   : No

Text
ID                                       : 4
Format                                   : UTF-8
Codec ID                                 : S_TEXT/UTF8
Codec ID/Info                            : UTF-8 Plain Text
Duration                                 : 1 h 17 min
Bit rate                                 : 35 b/s
Count of elements                        : 733
Stream size                              : 20.3 KiB (0%)
Title                                    : Full
Language                                 : English
Default                                  : No
Forced                                   : No

Menu
00:00:00.000                             : en:Chapter 00
00:04:26.057                             : en:Chapter 01
00:07:45.339                             : en:Chapter 02
00:16:20.187                             : en:Chapter 03
00:21:11.812                             : en:Chapter 04
00:24:49.988                             : en:Chapter 05
00:30:29.827                             : en:Chapter 06
00:35:31.754                             : en:Chapter 07
00:40:04.944                             : en:Chapter 08
00:45:23.929                             : en:Chapter 09
00:52:30.730                             : en:Chapter 10
00:57:21.562                             : en:Chapter 11
01:02:53.936                             : en:Chapter 12
01:07:43.726                             : en:Chapter 13
01:12:18.500                             : en:Chapter 14
01:16:41.429                             : en:Chapter 15
Світлини



5. Інший світ 5: Кровна помста / Underworld 5: Blood Wars (2016) 1080p H.265 Ukr/Eng | Sub Ukr/Eng
Інший світ 5: Кровна помста / Underworld 5: Blood Wars (2016) 1080p H.265 Ukr/Eng | Sub Ukr/Eng

Інший світ: Колекція / Underworld: Collection (2003-2016) 1080p H.265 Ukr/Eng | Sub Eng


Жанр: бойовик, жахи
Країна: США
Кінокомпанія: Lakeshore Entertainment, Screen Gems, Sketch Films
Режисер: Анна Ферстер
Актори: Кейт Бекінсейл, Тео Джеймс, Чарльз Денс, Тобайас Мензіс, Лара Пулвер, Алісія Вела-Бейлі, Трент Гарретт, Клементін Ніколсон, Петер Андерссон, Дейзі Хед та інші

Сюжет:
Століттями в царстві темряви триває протистояння між вампірами і перевертнями (ліканами), невидиме для людського ока. Зрада і ненависть панують в обох таборах супротивників. Відважна вампірша Селіна (Кейт Бекінсейл), яка роками вистежувала і знищувала перевертнів, повинна покласти край вічній війні і вберегти свій рід від зникнення.

Тривалість: 01:31:32
Якість:
Відео:
кодек: H.265 (HEVC)
розмір кадру: 1920 x 800
бітрейт: 4 911 кб/с
частота кадрів: 23.976 fps
біт піксель: 0.133 BPP
бітова глибина: 10 біт
Увага! Перед завантаженням переконайтесь, що ваш пристрій відтворення (та/або ПЗ) підтримує H.265 (HEVC)

Аудіо # 1:
мова: українська
переклад: професійний дубльований
кодек: AC-3 5.1
бітрейт: 640 кб/с

Аудіо # 2:
мова: англійська
переклад: оригінал
кодек: AC-3 5.1
бітрейт: 448 кб/с

Субтитри # 1:
мова: українська (Full),
тип: програмні (м'які)
формат: *.srt

Субтитри # 2:
мова: англійська (Full),
тип: програмні (м'які)
формат: *.srt


Info
Код:
General
Unique ID                                : 169180606132413065123975326136310380242 (0x7F46FFE1975DF311B283E562E79B36D2)
Complete name                            : G:\Video\Films\Collection\Underworld. Antology (2003-2016) 1080p H.265\5. Underworld 5. Blood Wars (2016) 1080p H.265 [UKR_ENG].
Format                                   :
Format version                           : Version 4 / Version 2
File size                                : 3.84 GiB
Duration                                 : 1 h 31 min
Overall bit rate                         : 6 000 kb/s
Movie name                               : Underworld 5. Blood Wars (2016)
Encoded date                             : UTC 2018-12-17 12:35:51
Writing application                      : v20.0.0 ('I Am The Sun') 32-bit
Writing library                          : libebml v1.3.5 + v1.4.8
Cover                                    : Yes
Attachments                              : Cover5.jpg

Video
ID                                       : 1
Format                                   : HEVC
Format/Info                              : High Efficiency Video Coding
Format profile                           : Main [email protected]@High
Codec ID                                 : V_MPEGH/ISO/HEVC
Duration                                 : 1 h 31 min
Bit rate                                 : 4 911 kb/s
Width                                    : 1 920 pixels
Height                                   : 800 pixels
Display aspect ratio                     : 2.40:1
Frame rate mode                          : Constant
Frame rate                               : 23.976 (24000/1001) FPS
Color space                              : YUV
Chroma subsampling                       : 4:2:0
Bit depth                                : 10 bits
Bits/(Pixel*Frame)                       : 0.133
Stream size                              : 3.14 GiB (82%)
Title                                    : Underworld 5. Blood Wars (2016)
Writing library                          : x265 2.7+340-aa9102400f24:[Windows][GCC 8.0.1][64 bit] 10bit
Encoding settings                        : cpuid=1049583 / frame-threads=4 / numa-pools=4 / wpp / no-pmode / no-pme / no-psnr / no-ssim / log-level=2 / input-csp=1 / input-res=1920x800 / interlace=0 / total-frames=131688 / level-idc=41 / high-tier=1 / uhd-bd=0 / ref=5 / no-allow-non-conformance / no-repeat-headers / annexb / no-aud / no-hrd / info / hash=0 / no-temporal-layers / open-gop / min-keyint=23 / keyint=240 / gop-lookahead=0 / bframes=10 / b-adapt=2 / b-pyramid / bframe-bias=0 / rc-lookahead=40 / lookahead-slices=4 / scenecut=40 / radl=0 / no-intra-refresh / ctu=64 / min-cu-size=8 / rect / amp / max-tu-size=32 / tu-inter-depth=3 / tu-intra-depth=3 / limit-tu=4 / rdoq-level=1 / dynamic-rd=0.00 / no-ssim-rd / signhide / no-tskip / nr-intra=0 / nr-inter=0 / no-constrained-intra / no-strong-intra-smoothing / max-merge=3 / limit-refs=2 / limit-modes / me=3 / subme=7 / merange=57 / temporal-mvp / weightp / weightb / no-analyze-src-pics / deblock=-3:-3 / no-sao / no-sao-non-deblock / rd=4 / no-early-skip / rskip / no-fast-intra / no-tskip-fast / no-cu-lossless / no-b-intra / no-splitrd-skip / rdpenalty=0 / psy-rd=2.00 / psy-rdoq=1.00 / no-rd-refine / no-lossless / cbqpoffs=0 / crqpoffs=0 / rc=crf / crf=18.0 / qcomp=0.60 / qpstep=4 / stats-write=0 / stats-read=0 / vbv-maxrate=50000 / vbv-bufsize=50000 / vbv-init=0.9 / crf-max=0.0 / crf-min=0.0 / ipratio=1.40 / pbratio=1.30 / aq-mode=1 / aq-strength=1.00 / cutree / zone-count=0 / no-strict-cbr / qg-size=32 / no-rc-grain / qpmax=69 / qpmin=0 / no-const-vbv / sar=1 / overscan=0 / videoformat=5 / range=0 / colorprim=1 / transfer=1 / colormatrix=1 / chromaloc=0 / display-window=0 / max-cll=0,0 / min-luma=0 / max-luma=1023 / log2-max-poc-lsb=8 / vui-timing-info / vui-hrd-info / slices=1 / no-opt-qp-pps / no-opt-ref-list-length-pps / no-multi-pass-opt-rps / scenecut-bias=0.05 / no-opt-cu-delta-qp / no-aq-motion / no-hdr / no-hdr-opt / no-dhdr10-opt / no-idr-recovery-sei / analysis-reuse-level=5 / scale-factor=0 / refine-intra=0 / refine-inter=0 / refine-mv=0 / no-limit-sao / ctu-info=0 / no-lowpass-dct / refine-mv-type=0 / copy-pic=1 / max-ausize-factor=1.0 / no-dynamic-refine / no-single-sei
Language                                 : English
Default                                  : Yes
Forced                                   : No
Color range                              : Limited
Color primaries                          : BT.709
Transfer characteristics                 : BT.709
Matrix coefficients                      : BT.709

Audio #1
ID                                       : 2
Format                                   : AC-3
Format/Info                              : Audio Coding 3
Codec ID                                 : A_AC3
Duration                                 : 1 h 31 min
Bit rate mode                            : Constant
Bit rate                                 : 640 kb/s
Channel(s)                               : 6 channels
Channel positions                        : Front: L C R, Side: L R, LFE
Sampling rate                            : 48.0 kHz
Frame rate                               : 31.250 FPS (1536 SPF)
Bit depth                                : 16 bits
Compression mode                         : Lossy
Stream size                              : 419 MiB (11%)
Title                                    : ПД - Blu-Ray
Language                                 : Ukrainian
Service kind                             : Complete Main
Default                                  : Yes
Forced                                   : Yes

Audio #2
ID                                       : 3
Format                                   : AC-3
Format/Info                              : Audio Coding 3
Codec ID                                 : A_AC3
Duration                                 : 1 h 31 min
Bit rate mode                            : Constant
Bit rate                                 : 448 kb/s
Channel(s)                               : 6 channels
Channel positions                        : Front: L C R, Side: L R, LFE
Sampling rate                            : 48.0 kHz
Frame rate                               : 31.250 FPS (1536 SPF)
Bit depth                                : 16 bits
Compression mode                         : Lossy
Stream size                              : 293 MiB (7%)
Title                                    : Original
Language                                 : English
Service kind                             : Complete Main
Default                                  : No
Forced                                   : No

Text #1
ID                                       : 4
Format                                   : UTF-8
Codec ID                                 : S_TEXT/UTF8
Codec ID/Info                            : UTF-8 Plain Text
Duration                                 : 1 h 30 min
Bit rate                                 : 63 b/s
Count of elements                        : 821
Stream size                              : 41.9 KiB (0%)
Title                                    : Full
Language                                 : Ukrainian
Default                                  : Yes
Forced                                   : No

Text #2
ID                                       : 5
Format                                   : UTF-8
Codec ID                                 : S_TEXT/UTF8
Codec ID/Info                            : UTF-8 Plain Text
Duration                                 : 1 h 30 min
Bit rate                                 : 42 b/s
Count of elements                        : 820
Stream size                              : 27.9 KiB (0%)
Title                                    : Full
Language                                 : English
Default                                  : No
Forced                                   : No

Menu
00:00:00.000                             : en:00:00:00.000
00:04:30.479                             : en:00:04:30.479
00:09:25.315                             : en:00:09:25.315
00:13:59.964                             : en:00:13:59.964
00:18:56.010                             : en:00:18:56.010
00:24:27.091                             : en:00:24:27.091
00:31:15.957                             : en:00:31:15.957
00:36:26.810                             : en:00:36:26.810
00:42:17.034                             : en:00:42:17.034
00:47:37.646                             : en:00:47:37.646
00:52:22.181                             : en:00:52:22.181
00:58:59.327                             : en:00:58:59.327
01:04:31.659                             : en:01:04:31.659
01:08:52.128                             : en:01:08:52.128
01:13:47.131                             : en:01:13:47.131
01:20:08.512                             : en:01:20:08.512
Світлини




Джерело:
Особиста оцінка: 10 - без зайвих вагань рекомендую всім!


>>> Усі мої релізи <<<



Срібний реліз (на рейтинг впливає 50% завантаженого)
 Трекер:    Зареєстрований   

Завантажити / скачати фільм українською



відео для новачків



 Зареєстрований:   2018-12-17 17:38
 Розмір:   26.33 GB 
 Оцінка фільму:   9.6/10 (Голосів: 29)
   
staf777 
Відео Гуртом - підтримка та поширення
Відео Гуртом - підтримка та поширення


З нами з: 16.11.16
Востаннє: 12.11.19
Повідомлень: 3017

2018-12-17 18:09  
Гарна збірка - автору респект
f1lia 
Новенький


З нами з: 25.02.15
Востаннє: 12.11.19
Повідомлень: 14

2019-02-18 12:08  
чим відкривати на android телевізорі? бо звук нема
Paul_T 
Новенький


З нами з: 21.01.18
Востаннє: 04.11.19
Повідомлень: 1

2019-09-05 10:48  
f1lia написано:
чим відкривати на android телевізорі? бо звук нема

Дивно, що взагалі щось є.
Скачане у кодуванні H.265 - тільки викинути. Не розумію, навіщо стільки зусиль, якщо подивитися можуть лише обрані?..

Anonymous 







2019-09-05 11:20  
f1lia написано:
чим відкривати на android телевізорі? бо звук нема

MX Player

viktorUKR 
Свій


З нами з: 19.06.08
Востаннє: 09.11.19
Повідомлень: 77

2019-09-12 22:15  
Гарна збірка - автору респект
Ваш часовий пояс: GMT + 2 Години

Нова тема   Відповісти