Вiй / Вий (2014) 1080p

Нові коментарі

Нова тема   Відповісти
Автор Повідомлення
staf777 
Відео Гуртом - підтримка та поширення
Відео Гуртом - підтримка та поширення


З нами з: 16.11.16
Востаннє: 02.03.21
Повідомлень: 5068

2018-12-17 13:47  
Вiй / Вий (2014) 1080p

Вiй / Вий (2014) 1080p


Жанр: фентезі, триллер
Країна: Росія, Україна, Чехія



Кінокомпанія: Ankor-Film, Galaxy Vision, Marins Group Entertaiment
Режисер: Олег Степченко
Актори: Джейсон Флемінг, Чарльз Денс, Валерій Золотухін, Олексій Чадов, Андрій Смоляков, Ніна Русланова, Агнія Дітковскіте, Юрій Цурило, Олександр Карпов, Олександр Яковлєв, Ольга Зайцева, Олексій Петрухін, Олексій Огурцов, Ігор Жижикін

Сюжет:
Початок 18-го століття. Картограф Джонатан Грін подорожує з Європи на Схід. Рухаючись через Трансільванію він розуміє, що заблукав. Неабияк поплутавши в тумані, він опиняється у невеликому козацькому поселенні. Народ живе тут у самітництві, захистивши себе від будь-яких контактів з рештою світу. Що приховують жителі хутора? Чого бояться і чому ховаються? Вчений вирішує розгадати таємницю, пов'язану з ім'ям незвичайної міфічної істоти - Вія. Стародавні слов'янські перекази оживають...


Тривалість: 02:10:12
Якість: 1080p
Відео:
кодек:
розмір кадру: 1890x1080
бітрейт: 11.6 Мб/с

Аудіо:
мова: українська
переклад: професійний дубльований Інтер
кодек: 2.0
бітрейт: 192 кб/с
Info
General
Unique ID : 338261833396068717841816215063121776337 (0xFE7ADC01833E50CDBB507789D3564ED1)
Complete name : G:\Жахи\Вий (2014) 1080p [Hurtom].
Format :
Format version : Version 4 / Version 2
File size : 10.7 GiB
Duration : 2 h 10 min
Overall bit rate : 11.8 Mb/s
Movie name : Вий (2014) 1080p [Hurtom]
Encoded date : UTC 2018-12-19 19:28:28
Writing application : v24.0.0 ('Beyond The Pale') 64-bit
Writing library : libebml v1.3.6 + v1.4.9
Cover : Yes
Attachments : cover.jpg

Video
ID : 1
Format : AVC
Format/Info : Advanced Video Codec
Format profile : [email protected]
Format settings : CABAC / 4 Ref Frames
Format settings, CABAC : Yes
Format settings, ReFrames : 4 frames
Codec ID : V_MPEG4/ISO/AVC
Duration : 2 h 10 min
Bit rate : 11.6 Mb/s
Width : 1 890 pixels
Height : 1 080 pixels
Display aspect ratio : 16:9
Frame rate mode : Constant
Frame rate : 23.976 (24000/1001) FPS
Color space : YUV
Chroma subsampling : 4:2:0
Bit depth : 8 bits
Scan type : Progressive
Bits/(Pixel*Frame) : 0.237
Stream size : 10.5 GiB (98%)
Writing library : core 138 r2358 9e941d1
Encoding settings : cabac=1 / ref=4 / deblock=1:-3:-3 / analyse=0x3:0x113 / me=umh / subme=11 / psy=1 / psy_rd=1.00:0.00 / mixed_ref=1 / me_range=32 / chroma_me=1 / trellis=2 / 8x8dct=1 / cqm=0 / deadzone=21,11 / fast_pskip=1 / chroma_qp_offset=-2 / threads=12 / lookahead_threads=1 / sliced_threads=0 / nr=0 / decimate=1 / interlaced=0 / bluray_compat=0 / constrained_intra=0 / bframes=5 / b_pyramid=2 / b_adapt=1 / b_bias=0 / direct=2 / weightb=1 / open_gop=0 / weightp=2 / keyint=240 / keyint_min=23 / scenecut=40 / intra_refresh=0 / rc_lookahead=40 / rc=2pass / mbtree=1 / bitrate=11600 / ratetol=1.0 / qcomp=0.60 / qpmin=10 / qpmax=51 / qpstep=4 / cplxblur=20.0 / qblur=0.5 / vbv_maxrate=62500 / vbv_bufsize=78125 / nal_hrd=none / ip_ratio=1.40 / aq=1:1.00 / zones=180941,187309,q=40
Language : English
Default : Yes
Forced : No

Audio
ID : 2
Format : AC-3
Format/Info : Audio Coding 3
Codec ID : A_AC3
Duration : 2 h 10 min
Bit rate mode : Constant
Bit rate : 192 kb/s
Channel(s) : 2 channels
Channel positions : Front: L R
Sampling rate : 48.0 kHz
Frame rate : 31.250 FPS (1536 SPF)
Bit depth : 16 bits
Compression mode : Lossy
Stream size : 179 MiB (2%)
Language : Ukrainian
Service kind : Complete Main
Default : Yes
Forced : Yes

Menu
00:00:00.000 : en:00:00:00.000
00:16:15.474 : en:00:16:15.474
00:32:07.634 : en:00:32:07.634
00:44:54.650 : en:00:44:54.650
01:07:12.195 : en:01:07:12.195
01:20:37.791 : en:01:20:37.791
01:37:30.803 : en:01:37:30.803
01:52:43.131 : en:01:52:43.131




Запис з ТБ Sando7 Koful синхронізація Sando7
Джерело:


Золотий реліз (завантажене не впливає на рейтинг)
 Трекер:    Зареєстрований   

Завантажити / скачати український фільм



відео для новачків



 Зареєстрований:   2018-12-19 21:47
 Розмір:   10.72 GB 
 Оцінка фільму:   7.1/10 (Голосів: 14)
   
Інші релізи
   Вій / Вий (2014) AVC Sando7  3 / 0   3.36 GB   2018-12-20 09:25 
   Вiй / Вий (2014) Remux 1080p kryk-v.ya.  4 / 0   20.18 GB   2018-12-19 15:44 
   Вiй / Вий (2014) 720p sergiyko.5  2 / 0   6.02 GB   2018-12-17 02:58 
bot 
робот


З нами з: 30.09.07
Востаннє: 26.05.05
Повідомлень: 27287

2018-12-17 13:48  
Тему перенесено з Фільми в HD до форуму Анонси релізів


staf777

kryk-v.ya. 
Попереджень: 1
Попереджень: 1 


З нами з: 14.02.14
Востаннє: 03.03.21
Повідомлень: 2552

2018-12-18 19:31  
За мною Remux 1080p.
staf777 
Відео Гуртом - підтримка та поширення
Відео Гуртом - підтримка та поширення


З нами з: 16.11.16
Востаннє: 02.03.21
Повідомлень: 5068

2018-12-19 15:45  
kryk-v.ya.
Бачу Ви перешли тільки на ремукси - похвально - бо на Гуртом завжди з ремуксами проблема нема кому викладати крім пару релізерів і то які роблять раз на рік

kryk-v.ya. 
Попереджень: 1
Попереджень: 1 


З нами з: 14.02.14
Востаннє: 03.03.21
Повідомлень: 2552

2018-12-19 15:50  
staf777
дякую...так...ви мене часто випереджаєте... Wide grin

https://toloka.to/t97420

staf777 
Відео Гуртом - підтримка та поширення
Відео Гуртом - підтримка та поширення


З нами з: 16.11.16
Востаннє: 02.03.21
Повідомлень: 5068

2018-12-19 16:05  
kryk-v.ya.
Зараз з ремуксами поки зав'язую бо нема вже місця на ЖД - зараз провожу ревізію ремуксів які видалити і то рука не поднимается ні коли не думав що зіткнуся з проблемою вільного місця на ЖД 12 ТБ думав з головою вистачить потім купив ще два ЖД по 1 ТБ вже їх теж релізи з'їли Happy
до речі а доріжка в ремуксі від sergiyko.5 чи ні якщо так то мабуть треба вказати людину яка працювала над звуком

kryk-v.ya. 
Попереджень: 1
Попереджень: 1 


З нами з: 14.02.14
Востаннє: 03.03.21
Повідомлень: 2552

2018-12-19 16:57  
staf777
так доріжка його,я вже вказав...

bot 
робот


З нами з: 30.09.07
Востаннє: 26.05.05
Повідомлень: 27287

2018-12-19 21:47  
Тему перенесено з Анонси релізів до форуму Фільми в HD


staf777

piznajko 
Відео Гуртом - субтитрування
Відео Гуртом - субтитрування


З нами з: 24.02.09
Востаннє: 17.11.20
Повідомлень: 2196

2018-12-22 05:33  
перенесіть в один розділ, шоб усі фільми були в однаковому розділі
staf777 
Відео Гуртом - підтримка та поширення
Відео Гуртом - підтримка та поширення


З нами з: 16.11.16
Востаннє: 02.03.21
Повідомлень: 5068

2018-12-24 11:50  
piznajko
В який розділ - Російськи фільми в HD чи що

bot 
робот


З нами з: 30.09.07
Востаннє: 26.05.05
Повідомлень: 27287

2018-12-24 15:19  
Тему перенесено з Фільми в HD до форуму Художні фільми


11FrYkT

Robar III 
Забанено
Забанено


З нами з: 18.08.11
Востаннє: 01.05.20
Повідомлень: 4905

2019-01-16 19:31  
Роздайте)
Ваш часовий пояс: GMT + 2 Години

Нова тема   Відповісти