Перше вбивство / First Kill (2017) AVC Ukr | Sub Eng

Нові коментарі

Нова тема   Відповісти
Автор Повідомлення
sergiyko.5 
VIP


З нами з: 25.02.16
Востаннє: 18.06.19
Повідомлень: 2335

2018-12-17 01:43  
Перше вбивство / First Kill (2017) AVC Ukr | Sub Eng

Перше вбивство / First Kill (2017) AVC Ukr | Sub Eng

Жанр: Бойовик, триллер
Країна: США
Кінокомпанія: Aboretum Productions, Brookstreet Pictures, Emmett/Furla/Oasis Films (EFO Films)
Режисер: Стівен С. Міллер
Актори: Брюс Вілліс, Хейден Крістенсен, Гетін Ентоні, Магі Авіла, Шарлотта Кірк, Вільям ДеМео, Тамара Білоус, Хезер Йохансен, Тайлер Джон Олсон

Сюжет:
У спробі відновити зв'язок зі своїм сином Денні, успішний брокер Уолл-стріт Уілл везе сім'ю на канікул до місцини, де він виріс. У той час як Уілл та Денні полюють, вони стають свідками розбірки поліцейського та злочинця через пограбування банку. Коли Денні захоплено заручником злочинця, Уілл змушений допомогти йому ховатися від начальника поліції, який розслідує вбивство. Уілл нмагається повернути вкрадені гроші в обмін на життя свого сина.




Тривалість: 01:41:42
Якість:

Відео: кодек: розмір кадру: 720 x 300 бітрейт: 1600 кб/с
Аудіо: мова: українська переклад: багатоголосий закадровий кодек: 2.0 бітрейт: 192 кб/с
Озвучення:
Субтитри: мова: англійська тип: програмні (м'які) формат: *.srt
Про файл:
General
Unique ID : 332445228912350399475798359103494178992 (0xFA1A9F437591827FEA33A1BD1EE448B0)
Complete name : G:\Torrents2\FILMS\First.Kill.2017.AVC.
Format :
Format version : Version 4
File size : 1.28 GiB
Duration : 1 h 41 min
Overall bit rate : 1 796 kb/s
Movie name : First Kill 2017 by sergiyko
Encoded date : UTC 2018-12-16 22:38:31
Writing application : v29.0.0 ('Like It Or Not') 64-bit
Writing library : libebml v1.3.6 + v1.4.9

Video
ID : 1
Format : AVC
Format/Info : Advanced Video Codec
Format profile : [email protected]
Format settings : CABAC / 10 Ref Frames
Format settings, CABAC : Yes
Format settings, ReFrames : 10 frames
Codec ID : V_MPEG4/ISO/AVC
Duration : 1 h 41 min
Bit rate : 1 604 kb/s
Width : 720 pixels
Height : 300 pixels
Display aspect ratio : 2.40:1
Frame rate mode : Constant
Frame rate : 23.976 (24000/1001) FPS
Color space : YUV
Chroma subsampling : 4:2:0
Bit depth : 8 bits
Scan type : Progressive
Bits/(Pixel*Frame) : 0.310
Stream size : 1.14 GiB (89%)
Title : First Kill 2017
Writing library : core 146 r2538 121396c
Encoding settings : cabac=1 / ref=10 / deblock=1:-3:-3 / analyse=0x3:0x133 / me=umh / subme=11 / psy=1 / psy_rd=1.00:0.07 / mixed_ref=1 / me_range=48 / chroma_me=1 / trellis=2 / 8x8dct=1 / cqm=0 / deadzone=21,11 / fast_pskip=0 / chroma_qp_offset=-3 / threads=6 / lookahead_threads=1 / sliced_threads=0 / nr=0 / decimate=0 / interlaced=0 / bluray_compat=0 / constrained_intra=0 / bframes=10 / b_pyramid=2 / b_adapt=2 / b_bias=0 / direct=3 / weightb=1 / open_gop=0 / weightp=2 / keyint=240 / keyint_min=23 / scenecut=40 / intra_refresh=0 / rc_lookahead=40 / rc=2pass / mbtree=0 / bitrate=1604 / ratetol=1.0 / qcomp=0.60 / qpmin=0 / qpmax=69 / qpstep=4 / cplxblur=20.0 / qblur=0.5 / vbv_maxrate=50000 / vbv_bufsize=62500 / nal_hrd=none / filler=0 / ip_ratio=1.40 / pb_ratio=1.30 / aq=1:1.00
Language : English
Default : Yes
Forced : No

Audio
ID : 2
Format : AC-3
Format/Info : Audio Coding 3
Commercial name : Dolby Digital
Codec ID : A_AC3
Duration : 1 h 41 min
Bit rate mode : Constant
Bit rate : 192 kb/s
Channel(s) : 2 channels
Channel layout : L R
Sampling rate : 48.0 kHz
Frame rate : 31.250 FPS (1536 SPF)
Bit depth : 16 bits
Compression mode : Lossy
Stream size : 140 MiB (11%)
Title : MOV | 2+2
Language : Ukrainian
Service kind : Complete Main
Default : Yes
Forced : No

Text #1
ID : 3
Format : UTF-8
Codec ID : S_TEXT/UTF8
Codec ID/Info : UTF-8 Plain Text
Duration : 1 h 32 min
Bit rate : 44 b/s
Count of elements : 986
Stream size : 30.1 KiB (0%)
Title : Full
Language : English
Default : No
Forced : No

Text #2
ID : 4
Format : UTF-8
Codec ID : S_TEXT/UTF8
Codec ID/Info : UTF-8 Plain Text
Duration : 1 h 34 min
Bit rate : 48 b/s
Count of elements : 1128
Stream size : 33.4 KiB (0%)
Title : SDH
Language : English
Default : No
Forced : No

Menu
00:00:00.000 : en:Chapter 01
00:06:17.960 : en:Chapter 02
00:12:44.013 : en:Chapter 03
00:18:11.048 : en:Chapter 04
00:27:18.303 : en:Chapter 05
00:31:22.672 : en:Chapter 06
00:36:54.337 : en:Chapter 07
00:42:25.042 : en:Chapter 08
00:47:59.960 : en:Chapter 09
00:54:46.992 : en:Chapter 10
00:59:12.423 : en:Chapter 11
01:06:39.537 : en:Chapter 12
01:12:08.907 : en:Chapter 13
01:18:46.596 : en:Chapter 14
01:24:15.800 : en:Chapter 15
01:31:56.093 : en:Chapter 16
Скріншоти:



Запис/зведення: sergiyko


 Трекер:    Зареєстрований   

Завантажити / скачати фільм українською



відео для новачків



 Зареєстрований:   2018-12-17 01:43
 Розмір:   1.28 GB 
 Оцінка фільму:   7.7/10 (Голосів: 21)
   
Інші релізи
   Перше вбивство / First Kill (2017) 720p Ukr/Eng | Sub Eng staf777  3 / 0   3.52 GB   2019-01-04 22:28 
   Перше вбивство / First Kill (2017) Ukr/Eng drop_plz  5 / 0   1.47 GB   2018-12-17 09:22 
   Перше вбивство / First Kill (2017) 1080p Ukr/Eng | Sub Eng sergiyko.5  6 / 0   9.47 GB   2018-12-17 01:34 
sergiyko.5 
VIP


З нами з: 25.02.16
Востаннє: 18.06.19
Повідомлень: 2335

2018-12-17 16:20  
Запис звуку DVB-T2, спектр до 18kHz.
aiden_finch 
Новенький


З нами з: 12.10.15
Востаннє: 18.06.19
Повідомлень: 24

2018-12-17 21:12  
Рейтинг правдивий ?? як фільм ??Бо таке враження, що Вілліс повторює шлях Ніколаса Кейджа ....
sergiyko.5 
VIP


З нами з: 25.02.16
Востаннє: 18.06.19
Повідомлень: 2335

2018-12-20 12:22  
Правдивий. Фільм не хітовий, але тримає в напрузі.
FUMF 
Новенький


З нами з: 19.12.12
Востаннє: 13.05.19
Повідомлень: 6

2018-12-22 02:51  
aiden_finch
Повторює.
А Хейден Крістенсен краще б залишався Дарком Вейдером))).
Сюжет - треш!!!

Ua.bos_01 
VIP


З нами з: 22.06.15
Востаннє: 17.06.19
Повідомлень: 1569

2018-12-26 22:00  
Даний фільм - цілковитий трешак. Прикро, що старий Брюссі так скотився, як і Кейдж. Не витрачайте часу.
volodymyr_sav 
VIP


З нами з: 07.10.13
Востаннє: 18.06.19
Повідомлень: 1573

2019-05-21 14:35  
Рейтинг навіть зависокий. Це певне перший фільм, що я не додивився відколи на Гуртом. Мене вистачило на 15хв і далі я перемотував на фінал. Настільки гівняного закруту сюжету давно не бачив. Гра акторів така тупа, що жах.
Я витер його одразу з торента, щоб навіть не роздавати цю маячню іншим- 1/10 направду не дивіться, не варто

Ваш часовий пояс: GMT + 2 Години

Нова тема   Відповісти