Перше вбивство / First Kill (2017) 1080p Ukr/Eng | Sub Eng

Нові коментарі

Нова тема   Відповісти
Автор Повідомлення
sergiyko.5 
Попереджень: 1
Попереджень: 1 


З нами з: 25.02.16
Востаннє: 18.09.20
Повідомлень: 3447

2018-12-16 21:16  
Перше вбивство / First Kill (2017) 1080p Ukr/Eng | Sub Eng

Перше вбивство / First Kill (2017) 1080p Ukr/Eng | Sub Eng

Жанр: Бойовик, триллер
Країна: США
Кінокомпанія: Aboretum Productions, Brookstreet Pictures, Emmett/Furla/Oasis Films (EFO Films)
Режисер: Стівен С. Міллер
Актори: Брюс Вілліс, Хейден Крістенсен, Гетін Ентоні, Магі Авіла, Шарлотта Кірк, Вільям ДеМео, Тамара Білоус, Хезер Йохансен, Тайлер Джон Олсон

Сюжет:
У спробі відновити зв'язок зі своїм сином Денні, успішний брокер Уолл-стріт Уілл везе сім'ю на канікул до місцини, де він виріс. У той час як Уілл та Денні полюють, вони стають свідками розбірки поліцейського та злочинця через пограбування банку. Коли Денні захоплено заручником злочинця, Уілл змушений допомогти йому ховатися від начальника поліції, який розслідує вбивство. Уілл нмагається повернути вкрадені гроші в обмін на життя свого сина.




Тривалість: 01:41:42
Якість:

Відео: кодек: розмір кадру: 1920 x 800 бітрейт: 12500 кб/с
Аудіо # 1: мова: українська переклад: багатоголосий закадровий кодек: 2.0 бітрейт: 192 кб/с
Озвучення:
Аудіо # 2: мова: англійська переклад: оригінал кодек: 5.1 бітрейт: 640 кб/с
Субтитри: мова: англійська тип: програмні (м'які) формат: *.srt
Про файл:
General
Unique ID : 112658436390595351693361224849907417273 (0x54C139C1CA36F799C0579D7650DA80B9)
Complete name : G:\Torrents2\FILMS\First.Kill.2017.1080p..Ukr.Eng.
Format :
Format version : Version 4
File size : 9.47 GiB
Duration : 1 h 41 min
Overall bit rate : 13.3 Mb/s
Movie name : First Kill 2017 1080p by sergiyko
Encoded date : UTC 2018-12-16 22:22:44
Writing application : v29.0.0 ('Like It Or Not') 64-bit
Writing library : libebml v1.3.6 + v1.4.9

Video
ID : 1
Format : AVC
Format/Info : Advanced Video Codec
Format profile : [email protected]
Format settings : CABAC / 5 Ref Frames
Format settings, CABAC : Yes
Format settings, ReFrames : 5 frames
Codec ID : V_MPEG4/ISO/AVC
Duration : 1 h 41 min
Bit rate : 12.5 Mb/s
Width : 1 920 pixels
Height : 800 pixels
Display aspect ratio : 2.40:1
Frame rate mode : Constant
Frame rate : 23.976 (24000/1001) FPS
Color space : YUV
Chroma subsampling : 4:2:0
Bit depth : 8 bits
Scan type : Progressive
Bits/(Pixel*Frame) : 0.339
Stream size : 8.87 GiB (94%)
Title : First Kill 2017
Writing library : core 142 r2431+42 c69a006 tMod [[email protected] X86_64]
Encoding settings : cabac=1 / ref=5 / deblock=1:-3:-3 / analyse=0x3:0x133 / me=umh / subme=11 / psy=1 / fade_compensate=0.00 / psy_rd=1.05:0.15 / mixed_ref=1 / me_range=48 / chroma_me=1 / trellis=2 / 8x8dct=1 / cqm=0 / deadzone=21,11 / fast_pskip=1 / chroma_qp_offset=-3 / threads=16 / lookahead_threads=2 / sliced_threads=0 / nr=0 / decimate=0 / interlaced=0 / bluray_compat=0 / constrained_intra=0 / fgo=0 / bframes=9 / b_pyramid=2 / b_adapt=2 / b_bias=0 / direct=3 / weightb=1 / open_gop=0 / weightp=2 / keyint=240 / keyint_min=23 / scenecut=40 / intra_refresh=0 / rc_lookahead=60 / rc=2pass / mbtree=1 / bitrate=12500 / ratetol=1.0 / qcomp=0.70 / qpmin=0:0:0 / qpmax=69:69:69 / qpstep=4 / cplxblur=20.0 / qblur=0.5 / vbv_maxrate=50000 / vbv_bufsize=62500 / nal_hrd=none / filler=0 / ip_ratio=1.30 / aq=1:0.80 / aq-sensitivity=10.00 / aq-factor=1.00:1.00:1.00 / aq2=0 / aq3=0
Language : English
Default : Yes
Forced : No
Color range : Limited
Color primaries : BT.709
Transfer characteristics : BT.709
Matrix coefficients : BT.709

Audio #1
ID : 2
Format : AC-3
Format/Info : Audio Coding 3
Commercial name : Dolby Digital
Codec ID : A_AC3
Duration : 1 h 41 min
Bit rate mode : Constant
Bit rate : 192 kb/s
Channel(s) : 2 channels
Channel layout : L R
Sampling rate : 48.0 kHz
Frame rate : 31.250 FPS (1536 SPF)
Bit depth : 16 bits
Compression mode : Lossy
Stream size : 140 MiB (1%)
Title : MOV | 2+2
Language : Ukrainian
Service kind : Complete Main
Default : Yes
Forced : Yes

Audio #2
ID : 3
Format : AC-3
Format/Info : Audio Coding 3
Commercial name : Dolby Digital
Codec ID : A_AC3
Duration : 1 h 41 min
Bit rate mode : Constant
Bit rate : 640 kb/s
Channel(s) : 6 channels
Channel layout : L R C LFE Ls Rs
Sampling rate : 48.0 kHz
Frame rate : 31.250 FPS (1536 SPF)
Bit depth : 16 bits
Compression mode : Lossy
Stream size : 466 MiB (5%)
Title : Original
Language : English
Service kind : Complete Main
Default : No
Forced : No

Text #1
ID : 4
Format : UTF-8
Codec ID : S_TEXT/UTF8
Codec ID/Info : UTF-8 Plain Text
Duration : 1 h 32 min
Bit rate : 44 b/s
Count of elements : 988
Stream size : 30.3 KiB (0%)
Title : Full
Language : English
Default : No
Forced : No

Text #2
ID : 5
Format : UTF-8
Codec ID : S_TEXT/UTF8
Codec ID/Info : UTF-8 Plain Text
Duration : 1 h 34 min
Bit rate : 48 b/s
Count of elements : 1127
Stream size : 33.8 KiB (0%)
Title : SDH
Language : English
Default : No
Forced : No

Menu
00:00:00.000 : en:Chapter 01
00:06:17.960 : en:Chapter 02
00:12:44.013 : en:Chapter 03
00:18:11.048 : en:Chapter 04
00:27:18.303 : en:Chapter 05
00:31:22.672 : en:Chapter 06
00:36:54.337 : en:Chapter 07
00:42:25.042 : en:Chapter 08
00:47:59.960 : en:Chapter 09
00:54:46.992 : en:Chapter 10
00:59:12.423 : en:Chapter 11
01:06:39.537 : en:Chapter 12
01:12:08.907 : en:Chapter 13
01:18:46.596 : en:Chapter 14
01:24:15.800 : en:Chapter 15
01:31:56.093 : en:Chapter 16
Скріншоти:


Запис/зведення: sergiyko


 Трекер:    Зареєстрований   

Завантажити / скачати фільм українською



відео для новачків



 Зареєстрований:   2018-12-17 01:34
 Розмір:   9.47 GB 
 Оцінка фільму:   9.1/10 (Голосів: 16)
   
Інші релізи
   Перше вбивство / First Kill (2017) 720p Ukr/Eng | Sub Eng staf777  0 / 0   3.52 GB   2019-01-04 22:28 
   Перше вбивство / First Kill (2017) Ukr/Eng drop_plz  2 / 0   1.47 GB   2018-12-17 09:22 
   Перше вбивство / First Kill (2017) AVC Ukr | Sub Eng sergiyko.5  2 / 0   1.28 GB   2018-12-17 01:43 
sergiyko.5 
Попереджень: 1
Попереджень: 1 


З нами з: 25.02.16
Востаннє: 18.09.20
Повідомлень: 3447

2018-12-17 01:45  
Запис звуку DVB-T2, спектр до 18kHz .
waldi-hurtom 
VIP


З нами з: 07.10.12
Востаннє: 17.09.20
Повідомлень: 1174

2018-12-17 21:57  
Щось опис геть лівий. [Спойлер видалено] та й фільм не про нього. Таке враження, що дописувач не дивився стрічку. А взагалі фільм непоганий 8 з 10. IMDB у даному випадку помилився. Дякую за реліз.
sergiyko.5 
Попереджень: 1
Попереджень: 1 


З нами з: 25.02.16
Востаннє: 18.09.20
Повідомлень: 3447

2018-12-17 22:54  
waldi-hurtom
Я б на вашому місці затер пост, щоб ті хто качатиме не втратили цікавість від несподіваної розв'язки.

Що до опису, так він не відповідає сюжету, поки кращого не знайшов.

vatanuki 
Забанено
Забанено


З нами з: 23.09.11
Востаннє: 11.01.20
Повідомлень: 71

2018-12-18 07:47  
офтоп
olexo 
Новенький


З нами з: 09.12.16
Востаннє: 17.09.20
Повідомлень: 12

2018-12-19 20:14  
О, швидко фільм подивився. За хвилину. Рекорд. Подяка waldi-hurtom
feanorhate 
Частий відвідувач


З нами з: 10.02.12
Востаннє: 14.09.20
Повідомлень: 38

2018-12-21 02:07  
waldi-hurtom
ай молодець. таке враження, що дописувач геть втратив рештки совісті.. дякую за фільм

0verlord 
Новенький


З нами з: 02.01.15
Востаннє: 22.08.20
Повідомлень: 13

2018-12-21 19:38  
waldi-hurtom, молодець. Дякую Sad (1)
waldi-hurtom 
VIP


З нами з: 07.10.12
Востаннє: 17.09.20
Повідомлень: 1174

2018-12-23 21:25  
Щось я не догнав - подякував за фільм, поставив 8 балів. В чому річ? Що опис лівий - то до чого тут я? Хто викладає, той хай і вигадує, якщо не зміг зідрати готовий. А фільм дійсно можна дивитися, незважаючи на оцінку IMDB. Ну, напишіть що фільм цей про білу полярну сову, що перетворилася в Білосніжку - ото буде несподіванка для глядача! Якась бабська логіка у вас, перепрошую.
sergiyko.5 
Попереджень: 1
Попереджень: 1 


З нами з: 25.02.16
Востаннє: 18.09.20
Повідомлень: 3447

2018-12-24 00:56  
Ви розкрили своїм попереднім постом сюжет, після чого людям не цікаво стало дивитись. Про що вам і "подякували". Так не принято робити.
Ваш часовий пояс: GMT + 2 Години

Нова тема   Відповісти