Таємниця Мерсі / Mercy (2014) 1080p Ukr/Eng

Нові коментарі

Нова тема   Відповісти
Автор Повідомлення
sergiyko.5 
VIP


З нами з: 25.02.16
Востаннє: 23.08.19
Повідомлень: 2443

2018-12-16 20:01  
Таємниця Мерсі / Mercy (2014) 1080p Ukr/Eng

Таємниця Мерсі / Mercy (2014) 1080p Ukr/Eng

Жанр: жахи, трилер
Країна: США
Кінокомпанія: Blumhouse Productions, Wonderland Sound and Vision
Режисер: Пітер Корнвелл
Актори: Чендлер Риггз, Ділан МакДермотт, Френсіс О'Коннор, Марк Дюпласс Джоел, Кортні Кріс, Браунінг Хана, Хейес Аманда, Уолш Ширлі, Найт Джо Егендер

Сюжет:
Фільм знятий за оповіданням Стівена Кінга "Бабуся". У кожної родини свої таємниці. Ось і в родині 11-річного Джорджа вона теж є. Разом з матір'ю і братом він вирушає доглядати за старою хворою бабусею, до чиїх дивних і жахливиї казлк він звик з дитинства. Але вони ніщо в порівнянні зі страшним прокляттям його сім'ї, яке переслідує їх. Страшні казки дитинства оживають, адже бабуля не просто зберігала їх і передавала спочатку дітям, а потім онукам, а й була головною героїнею найстрашнішої розповіді...




Тривалість: 01:18:39
Якість:

Відео: кодек: розмір кадру: 1916 х 796 бітрейт: 3700 кб/с
Аудіо # 1: мова: українська переклад: багатоголосий закадровий кодек: 2.0 бітрейт: 192 кб/с
Озвучення:
Аудіо # 2: мова: англійська переклад: оригінал кодек: 5.1 бітрейт: 384 кб/с
Про файл:
General
Unique ID : 178617744192504143107266248607978379445 (0x866086B5F4AB9423B0366CD80EAA58B5)
Complete name : G:\Torrents2\FILMS\Mercy.2014.1080p..Ukr.Eng.
Format :
Format version : Version 4
File size : 2.40 GiB
Duration : 1 h 18 min
Overall bit rate : 4 362 kb/s
Movie name : Mercy 2014 by sergiyko
Encoded date : UTC 2018-12-16 17:20:06
Writing application : v29.0.0 ('Like It Or Not') 64-bit
Writing library : libebml v1.3.6 + v1.4.9
Cover : Yes
Attachments : cover.jpeg

Video
ID : 1
Format : AVC
Format/Info : Advanced Video Codec
Format profile : [email protected]
Format settings : CABAC / 5 Ref Frames
Format settings, CABAC : Yes
Format settings, ReFrames : 5 frames
Codec ID : V_MPEG4/ISO/AVC
Duration : 1 h 18 min
Bit rate : 3 783 kb/s
Width : 1 916 pixels
Height : 796 pixels
Display aspect ratio : 2.40:1
Frame rate mode : Constant
Frame rate : 23.976 (23976/1000) FPS
Color space : YUV
Chroma subsampling : 4:2:0
Bit depth : 8 bits
Scan type : Progressive
Bits/(Pixel*Frame) : 0.103
Stream size : 2.08 GiB (87%)
Title : Mercy 2014
Language : English
Default : Yes
Forced : No
Color range : Limited
Color primaries : BT.709
Transfer characteristics : BT.709
Matrix coefficients : BT.709

Audio #1
ID : 2
Format : AC-3
Format/Info : Audio Coding 3
Commercial name : Dolby Digital
Codec ID : A_AC3
Duration : 1 h 18 min
Bit rate mode : Constant
Bit rate : 192 kb/s
Channel(s) : 2 channels
Channel layout : L R
Sampling rate : 48.0 kHz
Frame rate : 31.250 FPS (1536 SPF)
Bit depth : 16 bits
Compression mode : Lossy
Stream size : 108 MiB (4%)
Title : MOV | NLO-TV
Language : Ukrainian
Service kind : Complete Main
Default : Yes
Forced : Yes

Audio #2
ID : 3
Format : AC-3
Format/Info : Audio Coding 3
Commercial name : Dolby Digital
Codec ID : A_AC3
Duration : 1 h 18 min
Bit rate mode : Constant
Bit rate : 384 kb/s
Channel(s) : 6 channels
Channel layout : L R C LFE Ls Rs
Sampling rate : 48.0 kHz
Frame rate : 31.250 FPS (1536 SPF)
Bit depth : 16 bits
Compression mode : Lossy
Stream size : 216 MiB (9%)
Title : Original
Language : English
Service kind : Complete Main
Default : No
Forced : No

Menu
00:00:00.000 : en:1
00:04:31.000 : en:2
00:09:00.000 : en:3
00:14:49.000 : en:4
00:19:05.000 : en:5
00:24:38.000 : en:6
00:29:11.000 : en:7
00:33:56.000 : en:8
00:38:33.000 : en:9
00:43:59.000 : en:10
00:48:39.000 : en:11
00:53:18.000 : en:12
00:58:40.000 : en:13
01:02:55.000 : en:14
01:06:17.000 : en:15
01:11:20.000 : en:16
01:15:04.000 : en:17
Скріншоти:



Запис: Bohdan237
Зведення: sergiyko


 Трекер:    Зареєстрований   

Завантажити / скачати фільм українською



відео для новачків



 Зареєстрований:   2018-12-16 20:24
 Розмір:   2.4 GB 
 Оцінка фільму:   10/10 (Голосів: 3)
   
Інші релізи
DoctorLife 
Частий відвідувач


З нами з: 19.04.10
Востаннє: 23.08.19
Повідомлень: 40

2018-12-16 22:29  
"Тайна"?

Майже хвилину тупив, поки дійшло що наголос на останню літеру.

Ваш часовий пояс: GMT + 2 Години

Нова тема   Відповісти