Випадковий шпигун (Шпигун мимоволі, Dak miu mai shing, Accidental Spy) / Dak mo mai sing (2001) 1080p 4xUkr/Eng

Нові коментарі

Нова тема   Відповісти
Автор Повідомлення
Anonymous 







2018-12-16 12:24  
Випадковий шпигун (Шпигун мимоволі, Dak miu mai shing, Accidental Spy) / Dak mo mai sing (2001) 1080p 4xUkr/Eng

Випадковий шпигун (Шпигун мимоволі, Dak miu mai shing, Accidental Spy) / Dak mo mai sing (2001) 1080p 4xUkr/Eng


Жанр: бойовик, комедія
Країна: Гон Конг



Кінокомпанія: Golden Harvest Company
Режисер: Тедді Чан
Актори: Джекі Чан, Ерік Цан, Вівіан Су, Мін Кім, Сін-Куо У, Альфред Чун, Глорі Саймон

Сюжет:
Сирота Бак (Чан) звик демонструвати власну спритність та винахідливість тільки у крамниці спортивних товарів, де працював продавцем. Але одного разу Бак став героєм дня, зірвавши плани грабіжників, і відразу потрапив до поля зору спецслужб. Виявилося, що його батько був шпигуном Північної Кореї, і він залишив своєму сину небезпечний спадок... Черговий результат співпраці найпопулярнішої азіатської зірки з американською кінокомпанією «Мірамакс». За кількістю і якістю карколомних трюків ця картина не поступається його попереднім голлівудським роботам.


Тривалість: 01:27:23 (American cut)
Якість:
Відео:
кодек:
розмір кадру: 1920 х 816
бітрейт: 6683 кб/с

Аудіо # 1:
мова: українська
переклад: багатоголосий закадровий
кодек: 2.0
бітрейт: 192 кб/с

Аудіо # 2:
мова: українська
переклад: двоголосий закадровий
кодек: 2.0
бітрейт: 192 кб/с

Аудіо # 3:
мова: українська
переклад: багатоголосий закадровий
кодек: 2.0
бітрейт: 192 кб/с

Аудіо # 4:
мова: українська
переклад: двоголосий закадровий
кодек: 2.0
бітрейт: 192 кб/с

Аудіо # 5:
мова: англійська
переклад: оригінал
кодек: 5.1
бітрейт: 448 кб/с
Info
General
Unique ID : 51484992497425676278355306170855471570 (0x26BBA61C96CC9AE298597A3ACA7039D2)
Complete name : E:\films\The Accidental Spy (2001) 1080p [4xUkr.Eng] Hurtom.
Format :
Format version : Version 4 / Version 2
File size : 4.92 GiB
Duration : 1 h 27 min
Overall bit rate : 8 052 kb/s
Movie name : The Accidental Spy (2001) 1080p [4xUkr.Eng] Hurtom
Encoded date : UTC 2018-12-16 09:01:23 / UTC 2018-12-15T10:01:15Z
Writing application : v21.0.0 ('Tardigrades Will Inherit The Earth') 64-bit
Writing library : libebml v1.3.5 + v1.4.8 / Lavf57.7.2

Video
ID : 1
Format : AVC
Format/Info : Advanced Video Codec
Format profile : [email protected]
Format settings, CABAC : Yes
Format settings, ReFrames : 5 frames
Codec ID : V_MPEG4/ISO/AVC
Duration : 1 h 27 min
Bit rate : 6 676 kb/s
Width : 1 920 pixels
Height : 816 pixels
Display aspect ratio : 2.35:1
Frame rate mode : Constant
Frame rate : 23.976 (24000/1001) FPS
Color space : YUV
Chroma subsampling : 4:2:0
Bit depth : 8 bits
Scan type : Progressive
Bits/(Pixel*Frame) : 0.178
Stream size : 4.08 GiB (83%)
Title : The Accidental Spy (2001) 1080p [4xUkr.Eng] Hurtom
Writing library : core 155 r2901 7d0ff22
Encoding settings : cabac=1 / ref=5 / deblock=1:0:0 / analyse=0x3:0x133 / me=umh / subme=9 / psy=1 / psy_rd=1.00:0.00 / mixed_ref=1 / me_range=16 / chroma_me=1 / trellis=2 / 8x8dct=1 / cqm=0 / deadzone=21,11 / fast_pskip=1 / chroma_qp_offset=-2 / threads=12 / lookahead_threads=1 / sliced_threads=0 / nr=0 / decimate=1 / interlaced=0 / bluray_compat=0 / constrained_intra=0 / bframes=3 / b_pyramid=2 / b_adapt=2 / b_bias=0 / direct=3 / weightb=1 / open_gop=0 / weightp=2 / keyint=240 / keyint_min=24 / scenecut=40 / intra_refresh=0 / rc_lookahead=60 / rc=crf / mbtree=1 / crf=16.0 / qcomp=0.60 / qpmin=0 / qpmax=69 / qpstep=4 / vbv_maxrate=62500 / vbv_bufsize=78125 / crf_max=0.0 / nal_hrd=none / filler=0 / ip_ratio=1.40 / aq=1:1.00
Language : English
Default : Yes
Forced : No
Color range : Limited
Color primaries : BT.709
Transfer characteristics : BT.709
Matrix coefficients : BT.709
Statistics Tags Issue : v21.0.0 ('Tardigrades Will Inherit The Earth') 64-bit 2018-12-16 09:01:23 / v21.0.0 ('Tardigrades Will Inherit The Earth') 64-bit 2018-12-16 09:01:23 / UTC 2018-12-15T10:01:15Z
FromStats_BitRate : 6834325
FromStats_Duration : 01:27:23.197000000
FromStats_FrameCount : 125711
FromStats_StreamSize : 4479214609

Audio #1
ID : 2
Format : AC-3
Format/Info : Audio Coding 3
Mode extension : CM (complete main)
Format settings, Endianness : Big
Codec ID : A_AC3
Duration : 1 h 27 min
Bit rate mode : Constant
Bit rate : 192 kb/s
Channel(s) : 2 channels
Channel positions : Front: L R
Sampling rate : 48.0 kHz
Frame rate : 31.250 FPS (1536 spf)
Bit depth : 16 bits
Compression mode : Lossy
Stream size : 120 MiB (2%)
Title : ICTV channel
Language : Ukrainian
Default : Yes
Forced : No
Statistics Tags Issue : v21.0.0 ('Tardigrades Will Inherit The Earth') 64-bit 2018-12-16 09:01:23 / v21.0.0 ('Tardigrades Will Inherit The Earth') 64-bit 2018-12-16 09:01:23 / UTC 2018-12-15T10:01:15Z
FromStats_BitRate : 192000
FromStats_Duration : 01:27:15.488000000
FromStats_FrameCount : 163609
FromStats_StreamSize : 125651712

Audio #2
ID : 3
Format : AC-3
Format/Info : Audio Coding 3
Mode extension : CM (complete main)
Format settings, Endianness : Big
Codec ID : A_AC3
Duration : 1 h 27 min
Bit rate mode : Constant
Bit rate : 192 kb/s
Channel(s) : 2 channels
Channel positions : Front: L R
Sampling rate : 48.0 kHz
Frame rate : 31.250 FPS (1536 spf)
Bit depth : 16 bits
Compression mode : Lossy
Stream size : 120 MiB (2%)
Title : NOVY channel
Language : Ukrainian
Default : No
Forced : No
Statistics Tags Issue : v21.0.0 ('Tardigrades Will Inherit The Earth') 64-bit 2018-12-16 09:01:23 / v21.0.0 ('Tardigrades Will Inherit The Earth') 64-bit 2018-12-16 09:01:23 / UTC 2018-12-15T10:01:15Z
FromStats_BitRate : 192000
FromStats_Duration : 01:27:16.192000000
FromStats_FrameCount : 163631
FromStats_StreamSize : 125668608

Audio #3
ID : 4
Format : AC-3
Format/Info : Audio Coding 3
Mode extension : CM (complete main)
Format settings, Endianness : Big
Codec ID : A_AC3
Duration : 1 h 27 min
Bit rate mode : Constant
Bit rate : 192 kb/s
Channel(s) : 2 channels
Channel positions : Front: L R
Sampling rate : 48.0 kHz
Frame rate : 31.250 FPS (1536 spf)
Bit depth : 16 bits
Compression mode : Lossy
Stream size : 120 MiB (2%)
Title : TRK Ukraine channel
Language : Ukrainian
Default : No
Forced : No
Statistics Tags Issue : v21.0.0 ('Tardigrades Will Inherit The Earth') 64-bit 2018-12-16 09:01:23 / v21.0.0 ('Tardigrades Will Inherit The Earth') 64-bit 2018-12-16 09:01:23 / UTC 2018-12-15T10:01:15Z
FromStats_BitRate : 192000
FromStats_Duration : 01:27:15.456000000
FromStats_FrameCount : 163608
FromStats_StreamSize : 125650944

Audio #4
ID : 5
Format : AC-3
Format/Info : Audio Coding 3
Mode extension : CM (complete main)
Format settings, Endianness : Big
Codec ID : A_AC3
Duration : 1 h 27 min
Bit rate mode : Constant
Bit rate : 192 kb/s
Channel(s) : 2 channels
Channel positions : Front: L R
Sampling rate : 48.0 kHz
Frame rate : 31.250 FPS (1536 spf)
Bit depth : 16 bits
Compression mode : Lossy
Stream size : 120 MiB (2%)
Title : NTN channel
Language : Ukrainian
Default : No
Forced : No
Statistics Tags Issue : v21.0.0 ('Tardigrades Will Inherit The Earth') 64-bit 2018-12-16 09:01:23 / v21.0.0 ('Tardigrades Will Inherit The Earth') 64-bit 2018-12-16 09:01:23 / UTC 2018-12-15T10:01:15Z
FromStats_BitRate : 192000
FromStats_Duration : 01:27:23.232000000
FromStats_FrameCount : 163851
FromStats_StreamSize : 125837568

Audio #5
ID : 6
Format : AC-3
Format/Info : Audio Coding 3
Mode extension : CM (complete main)
Format settings, Endianness : Big
Codec ID : A_AC3
Duration : 1 h 27 min
Bit rate mode : Constant
Bit rate : 448 kb/s
Channel(s) : 6 channels
Channel positions : Front: L C R, Side: L R, LFE
Sampling rate : 48.0 kHz
Frame rate : 31.250 FPS (1536 spf)
Bit depth : 16 bits
Compression mode : Lossy
Stream size : 280 MiB (6%)
Title : Surround
Language : English
Default : No
Forced : No
Statistics Tags Issue : v21.0.0 ('Tardigrades Will Inherit The Earth') 64-bit 2018-12-16 09:01:23 / v21.0.0 ('Tardigrades Will Inherit The Earth') 64-bit 2018-12-16 09:01:23 / UTC 2018-12-15T10:01:15Z
FromStats_BitRate : 448000
FromStats_Duration : 01:27:23.200000000
FromStats_FrameCount : 163850
FromStats_StreamSize : 293619200
Скріншоти









Дякую всім хто долучився до релізу, а саме: Hulk1987, wrongfunction, Arsenfpu та Microfibra

Джерело: &


Срібний реліз (на рейтинг впливає 50% завантаженого)
 Трекер:    Зареєстрований   

Завантажити / скачати фільм українською



відео для новачків



 Зареєстрований:   2018-12-16 12:24
 Розмір:   4.92 GB 
 Оцінка фільму:   10/10 (Голосів: 8)
   
portsmuth 
Свій


З нами з: 10.06.14
Востаннє: 22.08.20
Повідомлень: 77

2019-09-22 14:18  
Один з найгірших фільмів з Джекі Чаном. Що не так з цим фільмом? Та практично все. Починаючи з дурнуватого сюжету. закінчуючи сирими, неправдоподібними трюками. Додамо сюди огидну акторську гру, майже повна відсутність хороших жартів, і вийде «Випадковий шпигун» - фільм, який можна дивитися на перемотуванні. А можна і зовсім пройти повз, якщо ви звичайно не фанат Джекі Чана - для фанатів там ексклюзивний сюрприз - Джекі Чан, бігає з голим задом по вулиці.
Ваш часовий пояс: GMT + 2 Години

Нова тема   Відповісти