Дорогий доктор (Сезони 1-8) / Royal Pains (Seasons 1-8) (2009-2016) 720p Ukr/Eng

Нові коментарі

Нова тема   Відповісти
Автор Повідомлення
Anonymous 







2018-12-15 22:16  
Дорогий доктор (Сезони 1-8) / Royal Pains (Seasons 1-8) (2009-2016) 720p Ukr/Eng

Дорогий доктор (Сезони 1-8) / Royal Pains (Seasons 1-8) (2009-2016) 720p Ukr/Eng


Жанр: драма, комедія
Країна: США



Кінокомпанія: Universal Cable Productions, Prospect Park, USA Network
Режисер: Ендрю Ленчевський (Andrew Lenchewski), Джон Роджерс (John P. Rogers)
Актори: Марк Фойерстин (Mark Feuerstein ), Паоло Костанзо (Paulo Costanzo), Решма Шетти (Reshma Shetty), Брук Д’Орсей (Brooke D'Orsay) та інші

Сюжет:
Працюючи у відділенні невідкладної допомоги, доктор Хенк Лоусон приймає єдине, як йому здавалося, правильне рішення. Він рятує підлітка ціною життя літнього пацієнта. Коли стало відомо, що пацієнт був мільярдером-покровителем цієї лікарні, Хенк втрачає роботу.
Молодший брат умовляє головного героя поїхати на вихідні в Хемптонс, де на вечірці він рятує життя одного з гостей. Так Хенк Лоусон стає приватним лікарем у найпрестижнішому передмісті Нью-Йорка...


Тривалість: 1 серія: ~42 хв. (цілком серій: 104)
Перелік серій
Сезон 1
01) Pilot
02) There Will Be Food
03) Strategic Planning
04) TB or Not TB
05) No Man Is an Island
06) If I Were a Sick Man
07) Crazy Love
08) The Honeymoon's Over
09) It's Like Jamais Vu All Over Again
10) Am I Blue?
11) Nobody's Perfect
12) Wonderland
Сезон 2
01) Spasticity
02) Lovesick
03) Keeping the Faith
04) Medusa
05) Mano a Mano
06) In Vino Veritas
07) Comfort's Overrated
08) The Hankover
09) Frenemies
10) Whole Lotto Love
11) Big Whoop
12) Open Up Your Yenta Mouth and Say Ah
13) Mulligan
14) Pit Stop
15) A History of Violins
16) Astraphobia
17) Fight or Flight
18) Listen to the Music
Сезон 3
01) Traffic
02) But There's a Catch
03) Rash Talk
04) The Shaw / Hank Redemption
05) A Man Called Grandpa
06) An Apple a Day
07) Ta Da For
08) Run, Hank, Run
09) Me First
10) A Little Art, a Little Science
11) A Farewell to Barnes
12) Some Pig
13) My Back to the Future
14) Bottoms Up
15) Hank and the Deep Blue Sea
16) This One's for Jack
Сезон 4
01) After the Fireworks
02) Imperfect Storm
03) A Guesthouse Divided
04) Dawn of the Med
05) You Give Love a Bad Name
06) About Face
07) Fools Russian
08) Manimal
09) Business & Pleasure
10) Who's Your Daddy
11) Dancing with the Devil
12) Hurts Like a Mother
13) Something Fishy This Way Comes
14) Sand Legs
15) Off-Season Greetings (Part 1)
16) Off-Season Greetings (Part 2)
Сезон 5
01) HankWatch
02) Blythe Spirits
03) Lawson Translation
04) Pregnant Paws
05) Vertigo
06) Can of Worms
07) Chock Full O' Nuts
08) Hammertime
09) Pins and Needles
10) Game of Phones
11) Open Invitation
12) A Trismus Story
13) Bones to Pick
Сезон 6
01) Smoke and Mirrors
02) All in the Family
03) A Bridge Not Quite Far Enough
04) Steaks on a Plane
05) Goodwill Stunting
06) Everybody Loves Ray, Man
07) Electric Youth
08) I Did Not See That Coming
09) Oh, M.G.
10) Good Air / Bad Air
11) HankMed on a Half Shell
12) A Bigger Boat
13) Ganging Up
Сезон 7
01) Rebound
02) False Start
03) Playing Doctor
04) The Prince of Nucleotides
05) Voices Carry
06) Secret Asian Man
07) Lama Trauma
08) Lending a Shoulder
Сезон 8
01) Stranger Danger
02) Palpating the Orbital Rim
03) Fly Me to Kowloon
04) Doubt of Africa
05) Saab Story
06) Home Sick
07) The Good News Is...
08) Uninterrupted
Якість:
Відео:
кодек:
розмір кадру: 1280 х 720
бітрейт: ~4000 кб/с

Аудіо # 1:
мова: українська
переклад: багатоголосий закадровий
кодек: 2.0
бітрейт: 192 кб/с
примітка: в серіях 4x15, 4x16, 5x13, 8x07 є місця без перекладу

Аудіо # 2:
мова: англійська
переклад: оригінал
кодек: 5.1
бітрейт: 384 кб/с
примітка: вітсутнє у першій серії

Джерело озвучення:
Info
General
Unique ID : 206557927820777363152583572034489016240 (0x9B659C1EBD8AB234BDFC7D1F01D1DFB0)
Complete name : E:\Support\Royal Pains [, 720p, Ukr, Eng]\Season 1\Royal Pains. S01E02. There Will Be Food.
Format :
Format version : Version 4
File size : 1.41 GiB
Duration : 42 min 24 s
Overall bit rate : 4 775 kb/s
Encoded date : UTC 2018-12-15 19:21:39
Writing application : v29.0.0 ('Like It Or Not') 64-bit
Writing library : libebml v1.3.6 + v1.4.9

Video
ID : 1
Format : AVC
Format/Info : Advanced Video Codec
Format profile : [email protected]
Format settings : 2 Ref Frames
Format settings, CABAC : No
Format settings, ReFrames : 2 frames
Codec ID : V_MPEG4/ISO/AVC
Duration : 42 min 24 s
Bit rate : 4 197 kb/s
Width : 1 280 pixels
Height : 720 pixels
Display aspect ratio : 16:9
Frame rate mode : Constant
Frame rate : 23.976 (24000/1001) FPS
Color space : YUV
Chroma subsampling : 4:2:0
Bit depth : 8 bits
Scan type : Progressive
Bits/(Pixel*Frame) : 0.190
Stream size : 1.24 GiB (88%)
Language : English
Default : Yes
Forced : No
Color range : Limited
Color primaries : BT.709
Transfer characteristics : BT.709
Matrix coefficients : BT.709

Audio #1
ID : 2
Format : AC-3
Format/Info : Audio Coding 3
Commercial name : Dolby Digital
Codec ID : A_AC3
Duration : 42 min 24 s
Bit rate mode : Constant
Bit rate : 192 kb/s
Channel(s) : 2 channels
Channel layout : L R
Sampling rate : 48.0 kHz
Frame rate : 31.250 FPS (1536 SPF)
Bit depth : 16 bits
Compression mode : Lossy
Stream size : 58.2 MiB (4%)
Title : К1
Language : Ukrainian
Service kind : Complete Main
Default : Yes
Forced : No

Audio #2
ID : 3
Format : AC-3
Format/Info : Audio Coding 3
Commercial name : Dolby Digital
Codec ID : A_AC3
Duration : 42 min 24 s
Bit rate mode : Constant
Bit rate : 384 kb/s
Channel(s) : 6 channels
Channel layout : L R C LFE Ls Rs
Sampling rate : 48.0 kHz
Frame rate : 31.250 FPS (1536 SPF)
Bit depth : 16 bits
Compression mode : Lossy
Stream size : 116 MiB (8%)
Language : English
Service kind : Complete Main
Default : No
Forced : No
Скріншоти

Українську доріжку взято з релізу https://toloka.to/t97296

Джерело: &
Особиста оцінка: 0 - не дивився


Золотий реліз (завантажене не впливає на рейтинг)
 Трекер:    Зареєстрований   

Завантажити / скачати серіал українською



відео для новачків



 Зареєстрований:   2019-05-05 09:39
 Розмір:   146.07 GB 
 Оцінка серіалу:   9.5/10 (Голосів: 8)
   
Anonymous 







2019-01-13 09:49  
Додав сезони 3-4.
Anonymous 







2019-05-05 09:41  
Додав сезони 5-8. Фінал серіалу.

Додано через 1 хвилину 14 секунд:

Прохання до модераторів дати роздачі золото.

DoctorLife 
Свій


З нами з: 19.04.10
Востаннє: 30.11.20
Повідомлень: 55

2019-10-10 00:13  
Додивився серіал майже місяць тому, а він все згадується і згадується. Дуже приємні актори, надзвичайні пейзажі, постійно яскраве літо. Чудова картинка для розслаблення. Шикарний переклад. Рекомендую.
Особливо гарно виглядає на екранах із увімкненим динамічним контрастом.
Звісно, з медичного погляду це повний абсурд.
Майже все лікують терміновим вводженням 500мл фізрозчину
Але це якось байдуже, бо це картинка щоб заспокоїтися перед сном.
Ну і завершення таке, ніби кудись дуже поспішали. Можна було спокійно продовжувати ще кілька сезонів.

Ваш часовий пояс: GMT + 2 Години

Нова тема   Відповісти