Країна припливів (Сезон 1) / Tidelands (Season 1) (2018)

Нові коментарі

Нова тема   Відповісти
Автор Повідомлення
DniproFilm 
VIP


З нами з: 10.10.18
Востаннє: 23.08.19
Повідомлень: 261

2018-12-15 21:01  
Країна припливів (Сезон 1) / Tidelands (Season 1) (2018)

Країна припливів (Сезон 1) / Tidelands (Season 1) (2018)


Жанр: драма, кримінальний, фентезі
Країна: Австралія



Кінокомпанія / телеканал: Hoodlum Entertainment, Netflix
Режисер: Катріона МакКензі
Актори/ролі озвучують: Шарлотта Бест, Хлоя Де Лос Сантос, Дастін Клер, Маттіас Інвуд, Аарон Якубенко, Мадлен Медден, Пітер О'Брайен, Ельза Патакі, Марко Пігоссі та інші

Сюжет:
Багатообіцяючий, атмосферний та загадковий містично-детективний трилер про розслідування цілої серії загадкових вбивств.
Сюжет розкриває історію про дівчину-втікачку, яка вирішила залишити минуле позаду і оселитися в тихому, забутому богом, рибальському селі на узбережжі. Але спокійне життя закінчується так і не розпочавшись: неподалік знаходять тіло мертвого чоловіка, а жителі закритої громади щось приховують і дуже не раді допитливим гостям. Згодом виявляється, що селище населяють не зовсім люди…


Тривалість: 1 серія: ~ 45 хв. (цілком серій: 8)
Перелік серій

1. Home
2. Orphans of L'Attente
3. Not One of You
4. Don't Trust Humans
5. The Calling
6. Loyalty
7. The Prophecy
8. The Queen's Knife
Якість:
Відео:
кодек:
розмір кадру: 720x360
бітрейт: ~1800 кб/с

Аудіо # 1:
мова: українська
переклад: багатоголосий закадровий
кодек: 5.1
бітрейт: 384 кб/с

Джерело озвучення:
DniproFilm
Info

Video
ID : 0
Format : MPEG-4 Visual
Format profile : Advanced [email protected]
Format settings : BVOP2
Format settings, BVOP : 2
Format settings, QPel : No
Format settings, GMC : No warppoints
Format settings, Matrix : Default (H.263)
Muxing mode : Packed bitstream
Codec ID :
Codec ID/Hint :
Duration : 42 min 16 s
Bit rate : 1 723 kb/s
Width : 720 pixels
Height : 360 pixels
Display aspect ratio : 2.000
Frame rate : 25.000 FPS
Color space : YUV
Chroma subsampling : 4:2:0
Bit depth : 8 bits
Scan type : Progressive
Compression mode : Lossy
Bits/(Pixel*Frame) : 0.266
Stream size : 521 MiB (81%)
Writing library : 67

Audio
ID : 1
Format : AC-3
Format/Info : Audio Coding 3
Commercial name : Dolby Digital
Codec ID : 2000
Duration : 42 min 16 s
Bit rate mode : Constant
Bit rate : 384 kb/s
Channel(s) : 6 channels
Channel positions : Front: L C R, Side: L R, LFE
Sampling rate : 48.0 kHz
Frame rate : 31.250 FPS (1536 SPF)
Bit depth : 16 bits
Compression mode : Lossy
Stream size : 116 MiB (18%)
Alignment : Aligned on interleaves
Interleave, duration : 40 ms (1.00 video frame)
Interleave, preload duratio : 512 ms
Service kind : Complete Main
Скріншоти


Увага, присутня відео та аудіореклама.


Джерело: DniproFilm



Авторський реліз (завантажувати можна без реєстрації)
 Трекер:    Зареєстрований   

Завантажити / скачати серіал українською



відео для новачків



 Зареєстрований:   2018-12-18 02:47
 Розмір:   5 GB 
 Оцінка серіалу:   9.6/10 (Голосів: 13)
   
Estranded 
VIP


З нами з: 09.02.14
Востаннє: 25.08.19
Повідомлень: 1395

2018-12-16 15:22  
Хтось вже дивився, як серіал?
vikpvv 
Новенький


З нами з: 19.01.09
Востаннє: 24.08.19
Повідомлень: 15

2018-12-17 02:07  
Ледве осилив другу серію.Такого низькопробного гидкого серіалу давно не баачив .Силіконові супербаби,гейдики ,сатанинські зірочки на рукавах у копів...Який обдовбаний гейдик це зняв? Дніпро,навіщо озвучувати цей щлак?
DniproFilm 
VIP


З нами з: 10.10.18
Востаннє: 23.08.19
Повідомлень: 261

2018-12-18 02:48  
УВАГА! РЕЛІЗ ОНОВЛЕНО! (18.12.2018) Додано 4-8 серії (фінал сезону).

Vitt 
Свій


З нами з: 17.01.11
Востаннє: 24.08.19
Повідомлень: 78

2018-12-18 06:18  
vikpvv написано:
Силіконові супербаби,гейдики


гейдики?
Це ви так ласкаво геїв називаєте?
Вони вам подобаються?
Хочете про це поговорити?

P.S. А серіал цікавий, принаймні перші дві серії, дивлюся далі.

P.P.S. Цицьки, які були у фільмі, як на мене, абсолютно натуральні.
Схоже у vikpvv проблеми не тільки з геями Happy

Додано через 10 хвилин 44 секунди:

DniproFilm написано:
Сюжет розкриває історію про дівчину-втікачку, яка вирішила залишити минуле позаду і оселитися в тихому, забутому богом, рибальському селі на узбережжі.


Все навпаки.
Вона повернулась додому після 10 років тюрми.
Це не спойлер, це показують на початку першої серії.

Час_настал 
VIP


З нами з: 01.07.10
Востаннє: 25.08.19
Повідомлень: 324

2018-12-18 12:31  
Кохайтеся чорноброві та не з земноводнимиHappy. Загалом непоганий серіал, як на мене.
Vitt 
Свій


З нами з: 17.01.11
Востаннє: 24.08.19
Повідомлень: 78

2018-12-18 21:45  
Подивився весь сезон. Оцінка - не менш, ніж 8/10.

P.S. Для особливо зацікавлених: гейства - 5 секунд на 8 серій(хоча спокійно можна було без цього обійтись, сюжет зовсім би не постраждав, напевно, "для галочки" вставили).

Ваш часовий пояс: GMT + 2 Години

Нова тема   Відповісти