Країна припливів (Сезон 1) / Tidelands (Season 1) (2018) 720p Ukr/Eng

Нові коментарі

Нова тема   Відповісти
Останній раз роздавалося ksenia1212 (2020-05-04)
Автор Повідомлення
DniproFilm 
VIP


З нами з: 10.10.18
Востаннє: 19.11.20
Повідомлень: 443

2018-12-15 20:01  
Країна припливів (Сезон 1) / Tidelands (Season 1) (2018) 720p Ukr/Eng

Країна припливів (Сезон 1) / Tidelands (Season 1) (2018) 720p Ukr/Eng


Жанр: драма, кримінальний, фентезі
Країна: Австралія



Кінокомпанія / телеканал: Hoodlum Entertainment, Netflix
Режисер: Катріона МакКензі
Актори/ролі озвучують: Шарлотта Бест, Хлоя Де Лос Сантос, Дастін Клер, Маттіас Інвуд, Аарон Якубенко, Мадлен Медден, Пітер О'Брайен, Ельза Патакі, Марко Пігоссі та інші

Сюжет:
Багатообіцяючий, атмосферний та загадковий містично-детективний трилер про розслідування цілої серії загадкових вбивств.
Сюжет розкриває історію про дівчину-втікачку, яка вирішила залишити минуле позаду і оселитися в тихому, забутому богом рибальському селі на узбережжі. Але спокійне життя закінчується так і не розпочавшись: неподалік знаходять тіло мертвого чоловіка, а жителі закритої громади щось приховують і дуже не раді допитливим гостям. Згодом виявляється, що селище населяють не зовсім люди…


Тривалість: 1 серія: ~ 45 хв. (цілком серій: 8)
Перелік серій

1. Home
2. Orphans of L'Attente
3. Not One of You
4. Don't Trust Humans
5. The Calling
6. Loyalty
7. The Prophecy
8. The Queen's Knife
Якість: 720p
Відео:
кодек:
розмір кадру: 1280x640
бітрейт: ~4000 кб/с

Аудіо # 1:
мова: українська
переклад: багатоголосий закадровий
кодек: 5.1
бітрейт: 384 кб/с

Аудіо # 2:
мова: англійська
переклад: оригінал
кодек: 5.1
бітрейт: 640 кб/с

Джерело озвучення:
DniproFilm
Info

Video
ID : 1
Format : AVC
Format/Info : Advanced Video Codec
Format profile : [email protected]
Format settings : CABAC / 4 Ref Frames
Format settings, CABAC : Yes
Format settings, ReFrames : 4 frames
Codec ID : V_MPEG4/ISO/AVC
Duration : 42 min 16 s
Bit rate : 3 935 kb/s
Width : 1 280 pixels
Height : 640 pixels
Display aspect ratio : 2.000
Frame rate mode : Constant
Frame rate : 25.000 FPS
Standard : PAL
Color space : YUV
Chroma subsampling : 4:2:0
Bit depth : 8 bits
Scan type : Progressive
Bits/(Pixel*Frame) : 0.192
Stream size : 1.16 GiB (79%)
Language : English
Default : Yes
Forced : No
Color range : Limited
Color primaries : BT.709
Transfer characteristics : BT.709
Matrix coefficients : BT.709

Audio #1
ID : 2
Format : AC-3
Format/Info : Audio Coding 3
Commercial name : Dolby Digital
Codec ID : A_AC3
Duration : 42 min 16 s
Bit rate mode : Constant
Bit rate : 384 kb/s
Channel(s) : 6 channels
Channel positions : Front: L C R, Side: L R, LFE
Sampling rate : 48.0 kHz
Frame rate : 31.250 FPS (1536 SPF)
Bit depth : 16 bits
Compression mode : Lossy
Stream size : 116 MiB (8%)
Title : DniproFilm
Language : Ukrainian
Service kind : Complete Main
Default : Yes
Forced : No

Audio #2
ID : 3
Format : AC-3
Format/Info : Audio Coding 3
Codec ID : A_AC3
Duration : 41 min 45 s
Bit rate : 640 kb/s
Channel(s) : 6 channels
Sampling rate : 48.0 kHz
Frame rate : 31.250 FPS (1536 SPF)
Compression mode : Lossy
Stream size : 191 MiB (13%)
Language : English
Default : No
Forced : No
Скріншоти


Увага, присутня відео та аудіореклама.


Джерело: DniproFilm



Авторський реліз (завантажувати можна без реєстрації)
 Трекер:    Зареєстрований   

Завантажити / скачати серіал українською



відео для новачків



 Зареєстрований:   2018-12-18 01:47
 Розмір:   11.64 GB 
 Оцінка серіалу:   8.7/10 (Голосів: 9)
   
DniproFilm 
VIP


З нами з: 10.10.18
Востаннє: 19.11.20
Повідомлень: 443

2018-12-18 01:48  
РЕЛІЗ ОНОВЛЕНО! (18.12.2018) Додано 4-8 серії (фінал сезону).

Ваш часовий пояс: GMT + 2 Години

Нова тема   Відповісти