Проста послуга / A Simple Favor (2018) Remux 1080p Ukr/Eng | Sub Eng

Нові коментарі

Нова тема   Відповісти
Автор Повідомлення
staf777 
Відео Гуртом - підтримка та поширення
Відео Гуртом - підтримка та поширення


З нами з: 16.11.16
Востаннє: 24.04.19
Повідомлень: 2284

2018-12-15 11:13  
Проста послуга / A Simple Favor (2018) Remux 1080p Ukr/Eng | Sub Eng

Альтернативні постери:







Жанр: детектив, драма, комедія, кримінальний, трилер
Країна: США, Канада



Кінокомпанія: BRON Studios, Feigco Entertainment
Режисер: Пол Фіг
Актори: Анна Кендрік, Блейк Лайвлі, Генрі Голдінг, Ендрю Реннеллс, Ян Хо, Джошуа Сатін, Гленда Браганза, Келлі МакКормак, Апарна Нанчерла

Сюжет:
Стефані, мама-блогер з маленького містечка, надає подрузі просту послугу, після чого та безслідно зникає... Разом з Шоном, чоловіком зниклої, Стефані повинна докопатися істини. Відтепер їх життя сповнене таємниць і зрад, любові і вірності, вбивств і помсти.


Тривалість: 01:56:48
Якість: Remux 1080p
Відео:
кодек:
розмір кадру: 1920x1080
бітрейт: 25 Mб/с

Аудіо # 1:
мова: українська
переклад: професійний дубльований | студія Pie Post Production
кодек: 2.0
бітрейт: 192 кб/с
Інформація про дубляж
Переклад: Юлії Са?нченко
Режисер дубляжу: Лідія Громовенко
Звукорежисер: Денис Подляський
Звукорежисер перезапису: Віталій Ящук
Ролі дублювали: Катерина Брайковська, Юлія Перенчук, Дмитро Терещук, Кирило Нікітенко, Катерина Качан, Дмитро Бузинський, Ірина Дорошенко, Антоніна Хижняк та інші.

Фільм дубльовано компанією Pie Post Production на замовлення компанії UFD.
Аудіо # 2:
мова: англійська
переклад: оригінал
кодек: -HD MA 5.1
бітрейт: 2492 кб/с

Субтитри: (Full, SDH)
мова: англійська
тип: програмні (м'які)
формат: *.srt
Info
General
Unique ID : 144887566778582002953425552825586301835 (0x6D00549158F929F349D0E644C0C03B8B)
Complete name : P:\HD українською » Фільми в HD\Драма\A Simple Favor (2018) Remux 1080p [UKR][ENG][Hurtom].
Format :
Format version : Version 4 / Version 2
File size : 22.6 GiB
Duration : 1 h 56 min
Overall bit rate mode : Variable
Overall bit rate : 27.7 Mb/s
Movie name : A Simple Favor (2018) Remux 1080p [UKR][ENG][Hurtom]
Encoded date : UTC 2018-12-15 09:22:52
Writing application : v24.0.0 ('Beyond The Pale') 64-bit
Writing library : libebml v1.3.6 + v1.4.9
Cover : Yes
Attachments : cover.jpg

Video
ID : 1
Format : AVC
Format/Info : Advanced Video Codec
Format profile : [email protected]
Format settings : CABAC / 3 Ref Frames
Format settings, CABAC : Yes
Format settings, ReFrames : 3 frames
Codec ID : V_MPEG4/ISO/AVC
Duration : 1 h 56 min
Bit rate mode : Variable
Bit rate : 25.0 Mb/s
Maximum bit rate : 40.0 Mb/s
Width : 1 920 pixels
Height : 1 080 pixels
Display aspect ratio : 16:9
Frame rate mode : Constant
Frame rate : 23.976 (24000/1001) FPS
Color space : YUV
Chroma subsampling : 4:2:0
Bit depth : 8 bits
Scan type : Progressive
Bits/(Pixel*Frame) : 0.503
Stream size : 20.4 GiB (90%)
Writing library : core 148 r2638 7599210
Encoding settings : cabac=1 / ref=4 / deblock=1:-1:-1 / analyse=0x3:0x133 / me=umh / subme=10 / psy=1 / psy_rd=1.00:0.15 / mixed_ref=1 / me_range=24 / chroma_me=1 / trellis=2 / 8x8dct=1 / cqm=0 / deadzone=21,11 / fast_pskip=1 / chroma_qp_offset=-3 / threads=18 / lookahead_threads=1 / sliced_threads=0 / slices=4 / nr=0 / decimate=1 / interlaced=0 / bluray_compat=1 / constrained_intra=0 / bframes=3 / b_pyramid=1 / b_adapt=2 / b_bias=0 / direct=3 / weightb=1 / open_gop=1 / weightp=1 / keyint=23 / keyint_min=1 / scenecut=40 / intra_refresh=0 / rc_lookahead=23 / rc=2pass / mbtree=1 / bitrate=25000 / ratetol=1.0 / qcomp=0.60 / qpmin=0 / qpmax=69 / qpstep=4 / cplxblur=20.0 / qblur=0.5 / vbv_maxrate=40000 / vbv_bufsize=30000 / nal_hrd=vbr / filler=0 / ip_ratio=1.40 / aq=1:1.00
Language : English
Default : Yes
Forced : No
Color range : Limited
Color primaries : BT.709
Transfer characteristics : BT.709
Matrix coefficients : BT.709

Audio #1
ID : 2
Format : AC-3
Format/Info : Audio Coding 3
Codec ID : A_AC3
Duration : 1 h 56 min
Bit rate mode : Constant
Bit rate : 192 kb/s
Channel(s) : 2 channels
Channel positions : Front: L R
Sampling rate : 48.0 kHz
Frame rate : 31.250 FPS (1536 SPF)
Bit depth : 16 bits
Compression mode : Lossy
Stream size : 160 MiB (1%)
Language : Ukrainian
Service kind : Complete Main
Default : Yes
Forced : Yes

Audio #2
ID : 3
Format :
Format/Info : Digital Theater Systems
Format profile : MA / Core
Codec ID : A_DTS
Duration : 1 h 56 min
Bit rate mode : Variable / Constant
Bit rate : 2 492 kb/s / 1 509 kb/s
Channel(s) : 6 channels
Channel positions : Front: L C R, Side: L R, LFE
Sampling rate : 48.0 kHz
Frame rate : 93.750 FPS (512 SPF)
Bit depth : 16 bits
Compression mode : Lossless / Lossy
Stream size : 2.03 GiB (9%)
Title : Original
Language : English
Default : No
Forced : No

Text #1
ID : 4
Format : UTF-8
Codec ID : S_TEXT/UTF8
Codec ID/Info : UTF-8 Plain Text
Duration : 1 h 50 min
Bit rate : 91 b/s
Count of elements : 2278
Stream size : 73.9 KiB (0%)
Title : Full
Language : English
Default : No
Forced : No

Text #2
ID : 5
Format : UTF-8
Codec ID : S_TEXT/UTF8
Codec ID/Info : UTF-8 Plain Text
Duration : 1 h 51 min
Bit rate : 97 b/s
Count of elements : 2451
Stream size : 80.3 KiB (0%)
Title : SDH
Language : English
Default : No
Forced : No

Menu
00:00:00.000 : en:00:00:00.000
00:06:33.977 : en:00:06:33.977
00:17:03.606 : en:00:17:03.606
00:26:24.166 : en:00:26:24.166
00:36:33.942 : en:00:36:33.942
00:46:30.329 : en:00:46:30.329
00:55:31.370 : en:00:55:31.370
01:08:43.661 : en:01:08:43.661
01:19:10.788 : en:01:19:10.788
01:27:40.589 : en:01:27:40.589
01:38:01.751 : en:01:38:01.751
01:50:20.572 : en:01:50:20.572
Скріншоти





Джерело: & &
Особиста оцінка: 0 - не дивився


Золотий реліз (завантажене не впливає на рейтинг)
 Трекер:    Зареєстрований   

Завантажити / скачати фільм українською



відео для новачків



 Зареєстрований:   2018-12-15 12:43
 Розмір:   22.58 GB 
 Оцінка фільму:   9.4/10 (Голосів: 17)
   
Інші релізи
   Проста послуга / A Simple Favor (2018) AVC Ukr/Eng | Sub Eng 11FrYkT  50 / 0   2.29 GB   2018-12-15 12:03 
   Проста послуга / A Simple Favor (2018) 1080p Ukr/Eng | Sub Eng staf777  31 / 2   9.71 GB   2018-12-15 11:52 
   Проста послуга / A Simple Favor (2018) 720p Ukr/Eng | Sub Eng 11FrYkT  26 / 0   3.76 GB   2018-12-15 10:51 
   Проста послуга / A Simple Favor (2018) Ukr/Eng uafilm.tv  86 / 4   1.46 GB   2018-12-15 10:15 
ignet 
Новенький


З нами з: 23.07.16
Востаннє: 15.04.19
Повідомлень: 2

2018-12-23 00:41  
Фільм дуже сподобався, сюжет цікавий. Приємно вражений.
[email protected] 
VIP


З нами з: 25.03.17
Востаннє: 21.04.19
Повідомлень: 292

2018-12-29 00:56  
І мені теж сподобався фільм
hetzendorf 
Попереджень: 2
Попереджень: 2 


З нами з: 23.07.15
Востаннє: 24.04.19
Повідомлень: 2056

2019-01-13 00:12  
Це найкращий детектив 2018 та один з найкращих детективів 2010-х, що я бачив. Я б дав «оскара». Мій детальніший відгук у Full HD-темі >>>
10/10

Ваш часовий пояс: GMT + 2 Години

Нова тема   Відповісти