Мушкетери / The Musketeers (Сезон 2) (2015) 1080p

Нові коментарі

Нова тема   Відповісти
Останній раз роздавалося sergiyko.5 (2020-11-26)
Автор Повідомлення
sergiyko.5 
Забанено
Забанено


З нами з: 25.02.16
Востаннє: 29.10.20
Повідомлень: 3650

2018-12-14 20:44  
Мушкетери / The Musketeers (Сезон 2) (2015) 1080p

Мушкетери / The Musketeers (Сезон 2) (2015) 1080p

Жанр: історичний, бойовик, драма
Країна: Великобританія
Студія / телеканал: BBC America, BBC Drama Productions, BBC Worldwide
Режисер: Тобі Хейнс, Феррен Блекберн, Річард Кларк
Актори: Люк Паскуаліно, Том Бйорк, Ховард Чарльз, Сантьяго Кабрера, Александра Доулінг, Пітер Капальді, Райан Гейдж

Сюжет:
1630 рік. Париж. Мушкетери Атос, Портос, Араміс і їх молодий, честолюбний друг д'Артаньян безстрашно б'ються, щоб захистити справедливість, країну і короля. Честь і відвага, відданість і любов – для них не порожні слова. А тяга до гострих відчуттів обіцяє мушкетерам низку захоплюючих пригод, повних небезпеки і ризику.




Тривалість: 1 серія: 52:00 (цілком серій: 10 з 10)
Якість:

Відео: кодек: розмір кадру: 1920 х 1080 бітрейт: 3500 кб/с
Аудіо: мова: українська переклад: багатоголосий закадровий кодек: 2.0 бітрейт: 256 кб/с
Озвучення:
Перелік серій
01 Keep Your Friends Close
02 An Ordinary Man
03 The Good Traitor
04 Emilie
05 The Return
06 Through a Glass Darkly
07 A Marriage of Inconvenience
08 The Prodigal Father
09 The Accused
10 Trial and Punishment
Info
General
Unique ID : 165163966516917067161242903682846348532 (0x7C416C422ECF365C1D9521F33174D4F4)
Complete name : G:\Torrents2\FILMS\The Musketeers S02 1080p \The Musketeers.S02E03.1080p..
Format :
Format version : Version 4
File size : 1.38 GiB
Duration : 52 min 7 s
Overall bit rate : 3 784 kb/s
Encoded date : UTC 2018-12-14 18:36:16
Writing application : v29.0.0 ('Like It Or Not') 64-bit
Writing library : libebml v1.3.6 + v1.4.9

Video
ID : 1
Format : AVC
Format/Info : Advanced Video Codec
Format profile : [email protected]
Format settings : CABAC / 6 Ref Frames
Format settings, CABAC : Yes
Format settings, ReFrames : 6 frames
Codec ID : V_MPEG4/ISO/AVC
Duration : 52 min 7 s
Bit rate : 3 526 kb/s
Width : 1 920 pixels
Height : 1 080 pixels
Display aspect ratio : 16:9
Frame rate mode : Constant
Frame rate : 25.000 FPS
Color space : YUV
Chroma subsampling : 4:2:0
Bit depth : 8 bits
Scan type : Progressive
Bits/(Pixel*Frame) : 0.068
Stream size : 1.28 GiB (93%)
Writing library : core 142 r2491 24e4fed
Encoding settings : cabac=1 / ref=6 / deblock=1:0:0 / analyse=0x3:0x113 / me=hex / subme=7 / psy=1 / psy_rd=1.00:0.00 / mixed_ref=1 / me_range=16 / chroma_me=1 / trellis=1 / 8x8dct=1 / cqm=0 / deadzone=21,11 / fast_pskip=1 / chroma_qp_offset=-2 / threads=12 / lookahead_threads=2 / sliced_threads=0 / nr=0 / decimate=1 / interlaced=0 / bluray_compat=0 / constrained_intra=0 / bframes=3 / b_pyramid=2 / b_adapt=1 / b_bias=0 / direct=1 / weightb=1 / open_gop=0 / weightp=2 / keyint=100 / keyint_min=10 / scenecut=40 / intra_refresh=0 / rc_lookahead=40 / rc=crf / mbtree=1 / crf=22.0 / qcomp=0.60 / qpmin=0 / qpmax=69 / qpstep=4 / vbv_maxrate=10000 / vbv_bufsize=20000 / crf_max=0.0 / nal_hrd=none / filler=0 / ip_ratio=1.41 / aq=1:1.00
Language : English
Default : Yes
Forced : No

Audio
ID : 2
Format : LC
Format/Info : Advanced Audio Codec Low Complexity
Codec ID : A_AAC-2
Duration : 52 min 7 s
Bit rate : 256 kb/s
Channel(s) : 2 channels
Channel layout : L R
Sampling rate : 44.1 kHz
Frame rate : 43.066 FPS (1024 SPF)
Compression mode : Lossy
Delay relative to video : -80 ms
Stream size : 95.5 MiB (7%)
Title : MOV | 2+2
Language : Ukrainian
Default : Yes
Forced : No
Скріншоти:



Запис: sergiyko


Бронзовий реліз (на рейтинг впливає 75% завантаженого)
 Трекер:    Зареєстрований   

Завантажити / скачати серіал українською



відео для новачків



 Зареєстрований:   2018-12-21 11:10
 Розмір:   14.84 GB 
 Оцінка серіалу:   10/10 (Голосів: 9)
   
sergiyko.5 
Забанено
Забанено


З нами з: 25.02.16
Востаннє: 29.10.20
Повідомлень: 3650

2018-12-14 21:02  
sergiyko.5 
Забанено
Забанено


З нами з: 25.02.16
Востаннє: 29.10.20
Повідомлень: 3650

2018-12-21 11:11  
Додав 7-10 серії.
Ваш часовий пояс: GMT + 2 Години

Нова тема   Відповісти