Ларрі Краун / Larry Crowne (2011) AVC 2xUkr/Eng | Sub Eng

Нові коментарі

Нова тема   Відповісти
Автор Повідомлення
staf777 
Відео Гуртом - підтримка та поширення
Відео Гуртом - підтримка та поширення


З нами з: 16.11.16
Востаннє: 08.12.19
Повідомлень: 3038

2018-12-14 20:10  
Ларрі Краун / Larry Crowne (2011) AVC 2xUkr/Eng | Sub Eng

Ларрі Краун / Larry Crowne (2011) AVC 2xUkr/Eng | Sub Eng


Жанр: драма, мелодрама, комедія
Країна: США



Кінокомпанія: Universal Pictures
Режисер: Том Хенкс
Актори: Том Хенкс, Джулія Робертс, Сара Махоні, Роксана Ортеґа, Тіна Хуанг

Сюжет:
До свого звільнення привітний і люб'язний Ларрі Краун був процвітаючим командним керівником великої компанії, в якій він працював після служби на флоті. Під вагою іпотеки і будучи в неясності від того, що робити з вільними днями, Ларрі вирушає у місцевий коледж, щоб почати все спочатку.


Тривалість: 01:38:36
Якість: AVC
Відео:
кодек:
розмір кадру: 1024x426
бітрейт: 2255 кб/с

Аудіо # 1:
мова: українська
переклад: професійний дубльований
кодек: 5.1
бітрейт: 448 кб/с

Аудіо # 2:
мова: українська
переклад: багатоголосий закадровий
кодек: 2.0
бітрейт: 192 кб/с

Аудіо # 3:
мова: англійська
переклад: оригінал
кодек: 5.1
бітрейт: 448 кб/с

Субтитри:
мова: англійська
тип: пререндерні
формат: PGS
Info

General
Unique ID : 134555838653992745801892455784357908363 (0x653A830AEF0C140BF022A2C97BE94F8B)
Complete name : N:\Фільми AVC\Комедія\Larry Crowne (2011) AVC [2xUKR][ENG][Hurtom].
Format :
Format version : Version 4 / Version 2
File size : 2.31 GiB
Duration : 1 h 38 min
Overall bit rate : 3 358 kb/s
Movie name : Larry Crowne (2011) AVC [2xUKR][ENG][Hurtom]
Encoded date : UTC 2018-12-15 18:28:38
Writing application : v24.0.0 ('Beyond The Pale') 64-bit
Writing library : libebml v1.3.6 + v1.4.9
Cover : Yes
Attachments : cover.jpg

Video
ID : 1
Format : AVC
Format/Info : Advanced Video Codec
Format profile : [email protected]
Format settings : CABAC / 5 Ref Frames
Format settings, CABAC : Yes
Format settings, ReFrames : 5 frames
Codec ID : V_MPEG4/ISO/AVC
Duration : 1 h 38 min
Bit rate : 2 255 kb/s
Width : 1 024 pixels
Height : 426 pixels
Display aspect ratio : 2.40:1
Frame rate mode : Constant
Frame rate : 23.976 (24000/1001) FPS
Color space : RGB
Chroma subsampling : 4:2:0
Bit depth : 8 bits
Scan type : Progressive
Bits/(Pixel*Frame) : 0.216
Stream size : 1.55 GiB (67%)
Writing library : core 115 r1936 7a9e08d
Encoding settings : cabac=1 / ref=5 / deblock=1:0:0 / analyse=0x3:0x113 / me=umh / subme=6 / psy=1 / psy_rd=1.00:0.10 / mixed_ref=1 / me_range=41 / chroma_me=1 / trellis=2 / 8x8dct=1 / cqm=0 / deadzone=21,11 / fast_pskip=1 / chroma_qp_offset=-3 / threads=3 / sliced_threads=0 / nr=0 / decimate=1 / interlaced=0 / bluray_compat=0 / constrained_intra=0 / bframes=6 / b_pyramid=2 / b_adapt=2 / b_bias=0 / direct=1 / weightb=1 / open_gop=0 / weightp=2 / keyint=250 / keyint_min=23 / scenecut=40 / intra_refresh=0 / rc_lookahead=40 / rc=2pass / mbtree=1 / bitrate=2255 / ratetol=1.0 / qcomp=0.60 / qpmin=0 / qpmax=69 / qpstep=4 / cplxblur=20.0 / qblur=0.5 / ip_ratio=1.40 / aq=1:1.00
Default : No
Forced : No
Color range : Limited
Color primaries : SMPTE 240M
Transfer characteristics : SMPTE 240M
Matrix coefficients : Identity

Audio #1
ID : 2
Format : AC-3
Format/Info : Audio Coding 3
Codec ID : A_AC3
Duration : 1 h 38 min
Bit rate mode : Constant
Bit rate : 448 kb/s
Channel(s) : 6 channels
Channel positions : Front: L C R, Side: L R, LFE
Sampling rate : 48.0 kHz
Frame rate : 31.250 FPS (1536 SPF)
Bit depth : 16 bits
Compression mode : Lossy
Stream size : 316 MiB (13%)
Title : [UKR-DUB]
Language : Ukrainian
Service kind : Complete Main
Default : Yes
Forced : Yes

Audio #2
ID : 3
Format : AC-3
Format/Info : Audio Coding 3
Codec ID : A_AC3
Duration : 1 h 38 min
Bit rate mode : Constant
Bit rate : 192 kb/s
Channel(s) : 2 channels
Channel positions : Front: L R
Sampling rate : 48.0 kHz
Frame rate : 31.250 FPS (1536 SPF)
Bit depth : 16 bits
Compression mode : Lossy
Stream size : 135 MiB (6%)
Title : 1+1
Language : Ukrainian
Service kind : Complete Main
Default : No
Forced : No

Audio #3
ID : 4
Format : AC-3
Format/Info : Audio Coding 3
Codec ID : A_AC3
Duration : 1 h 38 min
Bit rate mode : Constant
Bit rate : 448 kb/s
Channel(s) : 6 channels
Channel positions : Front: L C R, Side: L R, LFE
Sampling rate : 48.0 kHz
Frame rate : 31.250 FPS (1536 SPF)
Bit depth : 16 bits
Compression mode : Lossy
Stream size : 316 MiB (13%)
Language : English
Service kind : Complete Main
Default : No
Forced : No

Text
ID : 5
Format : PGS
Muxing mode : zlib
Codec ID : S_HDMV/PGS
Codec ID/Info : Picture based subtitle format used on BDs/HD-DVDs
Duration : 1 h 34 min
Bit rate : 40.1 kb/s
Count of elements : 2646
Stream size : 27.0 MiB (1%)
Language : English
Default : No
Forced : No
Скріншоти





За першу доріжку дякую пану vamp69
За запис з 1+1 дякую пану slavik_v_z та пану Arsenfpu за синхронізацію
Джерело: &
Особиста оцінка: 0 - не дивився
ЗАЛИШАЙТЕСЬ ЯКОМОГА ДОВШЕ НА РОЗДАЧІ!

СКАЧАВ САМ - ДАЙ СКАЧАТИ ІНШИМ



 Трекер:    Зареєстрований   

Завантажити / скачати фільм українською



відео для новачків



 Зареєстрований:   2018-12-15 22:16
 Розмір:   2.31 GB 
 Оцінка фільму:   7.9/10 (Голосів: 13)
   
Інші релізи
   Ларрі Краун / Larry Crowne (2011) Remux 1080p 2xUkr/Eng | Sub Eng staf777  1 / 0   25.2 GB   2018-12-14 20:11 
   Ларрі Краун / Larry Crowne (2011) 2xUkr/Eng Arsenfpu  4 / 0   2.13 GB   2016-06-18 16:31 
   Ларрі Краун / Larry Crowne (2011) 720р-mini Ukr/Eng | Sub Eng DejaVu  6 / 0   2.33 GB   2011-12-05 14:05 
bot 
робот


З нами з: 30.09.07
Востаннє: 26.05.05
Повідомлень: 22600

2018-12-15 22:16  
Тему перенесено з Анонси релізів до форуму Фільми


staf777

Djohnnikey 
VIP


З нами з: 01.10.15
Востаннє: 08.12.19
Повідомлень: 280

2019-01-04 13:30  
Довго думав, чому цей фільм залишає такі змішані почуття і зрозумів, що справа в героях Джулії Робертс та Тома Хенкса (підкреслю, що справа не стільки в акторах, скільки у сценаристах, які прописали такі ролі):
[b]Герой Тома Хенкса[/b] - цілісна особистість. Віриш його історії відставного кока, який хотів знайти свою тиху гавань, працюючи у супермаркеті, але не склалося. Віриш й історії з кредитом (правда ціни на нерухомість, судячи з усього, значно впали), й історії про університет (правда не до кінця зрозуміло: університет безкоштовний чи що? У США й безкоштовний?..), й його переходу з позашляховика на скутер, й його стосункам з молодою негритянкою та викладачкою - теж віриш. Герою співпереживаєш, йому співчуваєш. І з ним все добре.
А ось з героїнею Джулії Робертс все навпаки. Заміжня жінка, яка живе разом з письменником - колишнім викладачем і лає його за те, що той дивиться еротичні картинки. Але при цьому, як ми розуміємо, сама Робертс не була проти того, щоб чоловік пішов в письменники, і проблеми у неї почалися, тільки коли (та тыльки тому, що) він став писати повільніше, ніж вона цього хоче, і, відповідно, повільніше заробляти. А чому ти раніше йому нічого не сказала? Чому ти не поставила йому ультиматум тоді вже? Тобі від чоловіка потрібні були виключно гроші?
До того ж сама героїня - та ще стерво. Якщо її чоловік просто дивиться картинки в Інтернеті, то вона діє - ревнує героя Тома Хенкса (хоча сама вона, нагадаємо, заміжня, а Том їй нічого не обіцяв), як тільки чоловіка ловлять - ледь не затягує студента-Хенкса у ліжко...
При цьому роботу, якою вона тикає у чоловіка, сама героїня виконує "на відвали" - все що вона робить - сидить максимально далеко від студентів та вставляє їдкі коментарі. Саме тому до неї ходять максимум 10 чоловік, у той час як інші викладачі в тому ж університеті збирають повні зали. Тільки в день іспиту ми бачимо якесь переродження героїні Робертс: вона робить зі студентами зарядку! (Правда на наступний семестр її вже не вистачає).
При цьому героїню Робертс нам намагаються "продати", як позитивного персонажа. Але, вибачте, позитивний - це герой Ізабель Нанті у "Божевільних преподах", а ось від Джулії Робертс хочеться плюватися - вона - персонаж негативний. І саме те, що негативного героя нам видають за позитивного і вбиває враження від фільму.
Тому 5 з 10.

Ваш часовий пояс: GMT + 2 Години

Нова тема   Відповісти